<?xml version="1.0" standalone="no"?> <!DOCTYPE svg PUBLIC "-//W3C//DTD SVG 1.0//EN" "http://www.w3.org/TR/2001/REC-SVG-20010904/DTD/svg10.dtd" > <svg xmlns="http://www.w3.org/2000/svg" width="100%" height="100%">
<defs >
<font id="Yandex" horiz-adv-x="524" ><font-face
    font-family="Yandex Sans Text"
    units-per-em="1000"
    panose-1="2 0 0 0 0 0 0 0 0 0"
    ascent="950"
    descent="-250"
    alphabetic="0" />
<missing-glyph horiz-adv-x="196" />
<glyph unicode=" " glyph-name="space" horiz-adv-x="196" />
<glyph unicode="!" glyph-name="exclam" horiz-adv-x="268" d="M166 708L159 175H111L105 708H166ZM134 -5Q112 -5 99 9T85 43Q85 64 98 77T134 91Q156 91 169 78T182 43Q182 23 169 9T134 -5Z" />
<glyph unicode="&quot;" glyph-name="quotedbl" horiz-adv-x="350" d="M76 716H142L135 502H83L76 716ZM208 716H274L267 502H215L208 716Z" />
<glyph unicode="#" glyph-name="numbersign" horiz-adv-x="674" d="M439 470H266L236 267H409L439 470ZM402 219H229L196 0H143L176 219H43V267H183L213 470H70V517H220L250 716H303L273 517H446L476 716H529L499 517H631V470H492L462 267H604V219H455L422 0H369L402
219Z" />
<glyph unicode="$" glyph-name="dollar" horiz-adv-x="556" d="M113 540Q113 510 123 488T152 451T195 424T249 404V671Q183 663 148 632T113 540ZM443 185Q443 217 434 240T406 279T362 306T300 328V45Q330 48 356 57T402 83T432 125T443 185ZM249 -140V-10Q208
-9 176 -1T119 16T78 36T52 55L63 109Q74 100 91 90T132 69T184 52T249 43V342Q212 352 177 366T115 403T71 457T54 538Q54 622 106 668T249 724V838H301V726Q365 724 402 712T466 685L457 630Q427 647 390 659T301 673V389Q337 379 373 366T438 331T486 274T504
186Q504 136 488 101T443 43T378 8T300 -8V-140H249Z" />
<glyph unicode="%" glyph-name="percent" horiz-adv-x="670" d="M67 -10L548 726H603L122 -10H67ZM306 546Q306 501 295 468T266 412T222 378T169 366Q141 366 116 377T73 409T44 464T33 541Q33 586 43 620T72 677T116 711T169 723Q197 723 222 712T265 679T295
624T306 546ZM86 543Q86 475 108 443T169 411Q207 411 230 443T253 543Q253 612 230 644T169 677Q131 677 109 645T86 543ZM637 174Q637 130 626 96T597 40T553 6T500 -6Q472 -6 447 5T404 38T375 93T364 170Q364 214 374 248T403 305T447 339T500 351Q528 351
553 340T596 307T626 252T637 174ZM417 172Q417 104 439 72T500 40Q539 40 561 72T583 172Q583 241 561 273T500 305Q462 305 440 273T417 172Z" />
<glyph unicode="&amp;" glyph-name="ampersand" horiz-adv-x="771" d="M679 13Q631 13 592 31T511 82Q468 40 412 15T283 -10Q221 -10 177 5T103 48T61 110T47 185Q47 223 59 253T91 306T138 346T198 377Q163 414 137 458T111 556Q111 590 122 621T157 675T215
712T294 726Q339 726 373 713T431 678T466 625T478 560Q478 519 463 488T423 434T365 393T298 360L438 225L507 160Q548 214 571 278T603 398L656 383Q651 353 642 320T620 253T589 187T548 124Q580 98 613 82T685 66Q705 66 721 70T743 76V25Q738 23 722 18T679
13ZM287 43Q344 43 389 63T469 117Q430 152 387 193L237 339Q208 328 185 314T144 282T117 240T107 186Q107 157 117 131T150 86T206 55T287 43ZM172 556Q172 531 180 509T200 468T229 431T260 398Q296 414 325 430T375 465T407 507T418 560Q418 607 388 640T294
673Q263 673 240 663T202 637T180 600T172 556Z" />
<glyph unicode="&apos;" glyph-name="quotesingle" horiz-adv-x="218" d="M76 716H142L135 502H83L76 716Z" />
<glyph unicode="(" glyph-name="parenleft" horiz-adv-x="288" d="M215 -139Q133 -58 94 54T54 307Q54 448 93 565T215 756H276Q234 720 203 672T152 567T121 445T111 310Q111 169 151 57T276 -139H215Z" />
<glyph unicode=")" glyph-name="parenright" horiz-adv-x="288" d="M73 -139Q155 -58 194 54T234 307Q234 448 195 565T73 756H12Q54 720 85 672T136 567T167 445T177 310Q177 169 137 57T12 -139H73Z" />
<glyph unicode="*" glyph-name="asterisk" horiz-adv-x="427" d="M214 507L136 382L91 415L184 528L45 564L63 617L195 562L186 708H241L232 562L363 617L381 564L242 528L336 415L291 382L214 507Z" />
<glyph unicode="+" glyph-name="plus" horiz-adv-x="556" d="M309 313V92H253V313H53V362H253V582H309V362H509V313H309Z" />
<glyph unicode="," glyph-name="comma" horiz-adv-x="257" d="M77 -96Q94 -73 107 -48T122 -3Q104 0 93 13T82 44Q82 64 95 77T130 91Q153 91 166 77T180 35Q180 17 175 -2T160 -41T141 -76T120 -105L77 -96Z" />
<glyph unicode="-" glyph-name="hyphen" horiz-adv-x="365" d="M63 330H303V274H63V330Z" />
<glyph unicode="." glyph-name="period" horiz-adv-x="257" d="M129 -5Q106 -5 93 9T79 44Q79 66 92 80T129 94Q151 94 164 80T178 44Q178 24 165 10T129 -5Z" />
<glyph unicode="/" glyph-name="slash" horiz-adv-x="378" d="M3 -120L319 756H375L59 -120H3Z" />
<glyph unicode="0" glyph-name="zero" horiz-adv-x="556" d="M280 -10Q227 -10 184 13T109 81T61 196T44 359Q44 452 61 521T109 635T183 703T280 726Q333 726 376 704T450 637T497 523T514 361Q514 268 498 199T451 83T377 13T280 -10ZM279 43Q361 43 406 117T451
358Q451 442 440 501T407 599T353 655T280 673Q239 673 207 656T152 600T118 502T106 358Q106 191 151 117T279 43Z" />
<glyph unicode="1" glyph-name="one" horiz-adv-x="556" d="M307 0V640L90 478V546L319 716H369V0H307Z" />
<glyph unicode="2" glyph-name="two" horiz-adv-x="556" d="M56 0V66Q163 151 235 214T352 329T415 424T434 514Q434 547 424 576T392 626T336 659T256 672Q204 672 160 655T83 613L76 674Q105 696 152 711T261 726Q321 726 365 711T438 667T481 601T496 518Q496
464 475 414T409 311T293 196T122 57H503V0H56Z" />
<glyph unicode="3" glyph-name="three" horiz-adv-x="556" d="M245 -10Q182 -10 132 6T53 43L70 102Q97 80 141 62T244 44Q343 44 390 87T437 199Q437 268 393 308T264 349H166V403H269Q335 403 373 439T412 539Q412 567 403 591T374 633T321 661T244 672Q189
672 149 657T82 621L72 680Q103 701 146 713T246 726Q301 726 343 713T413 675T456 616T471 542Q471 507 461 480T434 432T394 399T347 380Q377 374 404 360T453 322T486 268T499 196Q499 151 481 113T430 48T350 5T245 -10Z" />
<glyph unicode="4" glyph-name="four" horiz-adv-x="556" d="M368 651L94 230H368V651ZM426 178V0H368V178H30V222L351 716H426V230H526V178H426Z" />
<glyph unicode="5" glyph-name="five" horiz-adv-x="556" d="M242 -10Q186 -10 135 3T57 36L72 95Q101 75 144 60T242 44Q290 44 325 58T385 96T421 154T433 227Q433 270 421 301T386 353T334 382T267 392Q216 392 183 378T132 348H85V716H463V660H140V407Q161
421 194 433T275 445Q321 445 361 432T431 391T478 323T495 227Q495 175 479 132T430 57T350 8T242 -10Z" />
<glyph unicode="6" glyph-name="six" horiz-adv-x="556" d="M283 -12Q234 -12 190 5T113 55T61 140T42 261Q42 346 72 418T147 547T248 647T355 714H447V707Q382 675 327 637T229 556T157 463T114 361Q146 406 191 433T301 460Q347 460 386 445T455 401T501 328T518
227Q518 173 501 129T452 53T377 5T283 -12ZM282 40Q319 40 351 52T406 87T443 145T456 226Q456 316 411 362T291 408Q229 408 185 378T105 292V261Q105 202 118 161T156 92T212 53T282 40Z" />
<glyph unicode="7" glyph-name="seven" horiz-adv-x="556" d="M119 0L441 660H56V716H506V664L185 0H119Z" />
<glyph unicode="8" glyph-name="eight" horiz-adv-x="556" d="M279 -10Q228 -10 185 4T111 44T61 107T43 193Q43 266 83 314T190 382Q136 399 102 439T68 543Q68 587 84 621T128 678T196 714T281 726Q325 726 363 715T429 680T474 624T491 545Q491 482 458 441T370
382Q435 363 474 317T514 196Q514 148 496 110T447 45T372 4T279 -10ZM281 406Q312 406 339 414T386 440T419 481T431 538Q431 571 420 596T388 638T341 664T281 673Q249 673 221 664T173 638T140 596T128 538Q128 506 140 482T174 440T222 415T281 406ZM279 43Q317
43 349 54T404 86T441 136T454 202Q454 239 441 268T404 317T349 347T281 358Q243 358 211 348T154 317T117 268T103 202Q103 166 116 137T152 86T208 54T279 43Z" />
<glyph unicode="9" glyph-name="nine" horiz-adv-x="556" d="M274 727Q323 727 367 710T444 660T496 575T516 454Q516 369 488 297T415 168T316 68T212 0H120V7Q182 38 235 76T331 159T402 252T444 354Q412 309 367 283T257 256Q211 256 171 271T102 315T56 388T39
489Q39 543 57 586T107 661T182 710T274 727ZM276 674Q240 674 209 663T153 628T116 570T102 490Q102 399 147 353T266 307Q329 307 373 336T452 423Q453 433 453 440T453 454Q453 512 440 554T402 622T346 661T276 674Z" />
<glyph unicode=":" glyph-name="colon" horiz-adv-x="288" d="M145 378Q122 378 109 392T95 427Q95 449 108 463T145 477Q167 477 180 463T194 427Q194 407 181 393T145 378ZM145 -5Q122 -5 109 9T95 44Q95 66 108 80T145 94Q167 94 180 80T194 44Q194 24 181 10T145 -5Z" />
<glyph unicode=";" glyph-name="semicolon" horiz-adv-x="288" d="M93 -96Q110 -73 123 -48T138 -3Q120 0 109 13T98 44Q98 64 111 77T146 91Q169 91 182 77T196 35Q196 17 191 -2T176 -41T157 -76T136 -105L93 -96ZM147 378Q124 378 111 392T97 427Q97 449 110
463T147 477Q169 477 182 463T196 427Q196 407 183 393T147 378Z" />
<glyph unicode="&lt;" glyph-name="less" horiz-adv-x="556" d="M77 304V371L479 562V508L122 337L479 167V112L77 304Z" />
<glyph unicode="=" glyph-name="equal" horiz-adv-x="556" d="M306 414V462H762V414H306ZM306 212V261H762V212H306Z" />
<glyph unicode="&gt;" glyph-name="greater" horiz-adv-x="556" d="M77 167L434 337L77 508V562L479 371V304L77 112V167Z" />
<glyph unicode="?" glyph-name="question" horiz-adv-x="480" d="M430 533Q430 498 422 471T401 423T369 384T329 352Q306 337 282 322T238 289T206 248T193 193V175H143V192Q143 236 156 266T190 319T236 357T287 391Q304 403 319 416T345 446T363 484T370 533Q370
562 362 587T334 632T286 662T213 673Q166 673 130 662T71 638L57 689Q80 702 117 714T211 726Q321 726 375 673T430 533ZM170 -5Q148 -5 135 9T122 43Q122 64 135 77T170 91Q192 91 205 78T219 43Q219 23 206 9T170 -5Z" />
<glyph unicode="@" glyph-name="at" horiz-adv-x="1047" d="M529 -180Q429 -180 342 -153T190 -71T88 63T51 248Q51 354 87 442T190 593T347 691T546 726Q639 726 721 700T864 625T961 503T997 337Q997 278 983 225T940 133T869 70T773 46Q708 46 676 78T635 155Q609
101 565 74T466 46Q433 46 402 57T347 92T309 153T294 245Q294 298 309 344T352 426T419 481T508 502Q566 502 604 472T656 382L685 474H726L687 234Q684 211 685 187T697 142T726 109T778 95Q812 95 841 111T893 158T929 232T942 330Q942 413 910 478T824 587T697
655T543 678Q450 678 370 647T231 560T139 426T105 252Q105 155 138 83T228 -37T363 -108T531 -132Q614 -132 672 -117T756 -89L767 -134Q753 -142 729 -150T673 -165T605 -176T529 -180ZM352 242Q352 200 363 172T392 126T433 102T479 94Q518 94 547 111T597 158T628
224T639 303Q639 380 603 416T515 453Q475 453 445 435T394 388T363 320T352 242Z" />
<glyph unicode="A" glyph-name="A" horiz-adv-x="641" d="M316 665L180 278H453L316 665ZM473 222H160L82 0H23L275 716H365L618 0H552L473 222Z" />
<glyph unicode="B" glyph-name="B" horiz-adv-x="613" d="M156 660V397H278Q359 397 408 430T458 540Q458 605 416 632T291 660H156ZM156 341V57H298Q342 57 377 64T438 89T478 133T492 201Q492 275 446 308T302 341H156ZM92 716H291Q403 716 462 676T522 543Q522
468 485 429T384 374Q471 363 514 322T557 203Q557 148 537 110T483 47T401 11T298 0H92V716Z" />
<glyph unicode="C" glyph-name="C" horiz-adv-x="662" d="M394 -10Q317 -10 254 15T145 88T76 204T51 358Q51 445 74 513T142 628T250 701T392 726Q468 726 521 708T607 664L594 602Q557 632 506 650T392 669Q261 669 190 589T118 358Q118 207 192 127T398 47Q458
47 504 64T589 111L607 57Q577 31 524 11T394 -10Z" />
<glyph unicode="D" glyph-name="D" horiz-adv-x="713" d="M156 659V57H319Q378 57 428 76T515 135T573 235T594 376Q594 457 574 511T517 598T433 645T330 659H156ZM92 716H329Q398 716 458 699T564 642T635 538T661 379Q661 285 635 214T563 96T454 24T318 0H92V716Z" />
<glyph unicode="E" glyph-name="E" horiz-adv-x="573" d="M92 716H505V659H156V401H458V344H156V57H510V0H92V716Z" />
<glyph unicode="F" glyph-name="F" horiz-adv-x="551" d="M156 323V0H92V716H500V659H156V380H458V323H156Z" />
<glyph unicode="G" glyph-name="G" horiz-adv-x="747" d="M692 279Q692 216 673 163T615 72T521 12T391 -10Q318 -10 256 15T148 88T77 204T51 358Q51 444 75 512T146 627T259 700T410 726Q491 726 549 706T643 660L630 599Q588 631 533 650T409 669Q266 669 192
588T118 358Q118 284 138 226T194 128T281 68T391 47Q450 47 494 64T569 111T614 183T629 275V308H370V365H692V279V279Z" />
<glyph unicode="H" glyph-name="H" horiz-adv-x="730" d="M575 327H156V0H92V716H156V384H575V716H638V0H575V327Z" />
<glyph unicode="I" glyph-name="I" horiz-adv-x="247" d="M156 716V0H92V716H156Z" />
<glyph unicode="J" glyph-name="J" horiz-adv-x="368" d="M280 716V136Q280 106 272 79T245 33T199 2T130 -10Q75 -10 35 9L47 67Q54 62 75 55T124 47Q176 47 196 73T217 150V716H280Z" />
<glyph unicode="K" glyph-name="K" horiz-adv-x="619" d="M237 331H156V0H92V716H156V388H236L510 716H582L289 364L595 0H517L237 331Z" />
<glyph unicode="L" glyph-name="L" horiz-adv-x="561" d="M92 716H156V57H507V0H92V716Z" />
<glyph unicode="M" glyph-name="M" horiz-adv-x="870" d="M151 632V0H92V716H179L435 171L696 716H778V0H715V627L464 109H400L151 632Z" />
<glyph unicode="N" glyph-name="N" horiz-adv-x="743" d="M151 645V0H92V716H178L592 67V716H651V0H563L151 645Z" />
<glyph unicode="O" glyph-name="O" horiz-adv-x="776" d="M388 -10Q316 -10 255 15T148 87T77 203T51 359Q51 448 76 516T147 631T254 702T388 726Q461 726 522 702T629 632T699 517T725 359Q725 272 700 204T629 88T523 15T388 -10ZM388 47Q447 47 496 66T582
123T638 220T659 358Q659 437 639 495T582 592T497 650T388 669Q329 669 280 650T194 593T138 496T118 358Q118 279 138 221T194 124T279 66T388 47Z" />
<glyph unicode="P" glyph-name="P" horiz-adv-x="583" d="M156 659V355H288Q376 355 424 392T473 516Q473 590 429 624T297 659H156ZM156 298V0H92V716H297Q410 716 473 668T536 517Q536 459 519 418T469 350T391 311T288 298H156Z" />
<glyph unicode="Q" glyph-name="Q" horiz-adv-x="776" d="M708 -128Q629 -113 566 -96T451 -60T356 -25T274 7Q224 25 183 55T113 129T68 230T51 358Q51 446 76 514T147 630T254 701T388 726Q460 726 521 702T628 632T699 517T725 361Q725 288 708 227T654 119T563
41T433 -1Q497 -24 567 -40T729 -69L708 -128ZM388 47Q447 47 496 66T582 123T638 220T659 358Q659 437 639 495T582 592T497 650T388 669Q329 669 280 650T194 593T138 496T118 358Q118 279 138 221T194 124T279 66T388 47Z" />
<glyph unicode="R" glyph-name="R" horiz-adv-x="617" d="M156 0H92V716H307Q423 716 485 669T548 521Q548 474 536 439T500 378T445 338T372 315L573 0H503L306 309H156V0ZM156 660V366H294Q336 366 371 374T431 400T469 448T483 521Q483 594 439 627T307 660H156Z" />
<glyph unicode="S" glyph-name="S" horiz-adv-x="577" d="M272 -10Q231 -10 196 -4T132 11T80 31T44 54L58 114Q73 103 95 91T144 69T204 53T272 47Q311 47 345 55T406 80T447 123T462 186Q462 222 449 246T412 287T354 315T276 338Q236 348 196 362T125 398T74
455T54 539Q54 632 119 679T299 726Q336 726 365 722T416 712T456 699T487 685L476 625Q446 643 402 656T299 669Q211 669 164 638T117 541Q117 508 131 485T168 446T223 419T288 399Q327 388 369 376T446 341T504 282T527 189Q527 134 506 96T448 35T366 1T272
-10Z" />
<glyph unicode="T" glyph-name="T" horiz-adv-x="562" d="M313 659V0H249V659H24V716H538V659H313Z" />
<glyph unicode="U" glyph-name="U" horiz-adv-x="693" d="M76 716H140V247Q140 196 154 159T196 96T260 59T344 47Q389 47 428 59T495 96T540 159T557 248V716H617V250Q617 187 596 139T538 57T451 7T343 -10Q286 -10 237 6T152 54T96 134T76 246V716Z" />
<glyph unicode="V" glyph-name="V" horiz-adv-x="619" d="M18 716H83L311 48L541 716H601L357 0H263L18 716Z" />
<glyph unicode="W" glyph-name="W" horiz-adv-x="925" d="M26 716H91L250 64L430 716H502L681 67L840 716H899L724 0H635L463 635L292 0H203L26 716Z" />
<glyph unicode="X" glyph-name="X" horiz-adv-x="634" d="M312 323L94 0H27L279 370L44 716H118L324 414L526 716H593L355 368L607 0H532L312 323Z" />
<glyph unicode="Y" glyph-name="Y" horiz-adv-x="599" d="M268 0V311L17 716H88L303 366L518 716H582L332 312V0H268Z" />
<glyph unicode="Z" glyph-name="Z" horiz-adv-x="599" d="M50 0V47L466 659H60V716H543V669L124 57H544V0H50Z" />
<glyph unicode="[" glyph-name="bracketleft" horiz-adv-x="288" d="M61 756H263V705H118V-88H263V-139H61V756Z" />
<glyph unicode="\" glyph-name="backslash" horiz-adv-x="374" d="M3 756H59L375 -120H319L3 756Z" />
<glyph unicode="]" glyph-name="bracketright" horiz-adv-x="288" d="M227 756H25V705H170V-88H25V-139H227V756Z" />
<glyph unicode="^" glyph-name="asciicircum" horiz-adv-x="456" d="M228 672L86 458H33L190 716H266L423 458H370L228 672Z" />
<glyph unicode="_" glyph-name="underscore" horiz-adv-x="376" d="M-8 -64H383V-115H-8V-64Z" />
<glyph unicode="`" glyph-name="grave" horiz-adv-x="456" d="M249 593L135 746H214L301 593H249Z" />
<glyph unicode="a" glyph-name="a" horiz-adv-x="525" d="M220 43Q254 43 281 53T330 80T366 116T390 152V260H291Q191 260 148 231T104 147Q104 97 135 70T220 43ZM399 0Q396 15 394 40T392 94Q381 76 366 58T328 24T276 0T210 -10Q134 -10 90 31T45 145Q45 227
106 268T286 309H390V354Q390 423 353 450T251 477Q197 477 155 463T87 432L71 481Q97 499 144 514T254 529Q342 529 395 489T449 361V94Q449 68 450 42T454 0H399Z" />
<glyph unicode="b" glyph-name="b" horiz-adv-x="614" d="M332 -10Q265 -10 216 23T139 115L137 0H81V716H140V405Q166 463 215 496T334 529Q383 529 426 512T501 461T551 377T570 260Q570 194 551 144T500 59T425 8T332 -10ZM326 43Q366 43 399 57T457 98T496
166T510 260Q510 313 496 353T458 421T400 463T326 477Q286 477 252 463T192 422T153 354T139 260Q139 207 153 167T192 99T251 57T326 43Z" />
<glyph unicode="c" glyph-name="c" horiz-adv-x="498" d="M301 -10Q245 -10 198 8T116 60T62 145T43 259Q43 322 62 372T115 457T198 510T303 529Q347 529 386 520T455 492L440 440Q414 455 379 466T303 477Q211 477 157 421T103 259Q103 208 117 168T158 100T220
58T301 43Q343 43 376 53T438 81L453 31Q427 12 390 1T301 -10Z" />
<glyph unicode="d" glyph-name="d" horiz-adv-x="613" d="M289 43Q329 43 363 57T422 98T461 166T475 260Q475 314 461 354T422 422T363 463T289 477Q249 477 215 463T157 422T118 354T104 260Q104 207 118 167T156 99T215 57T289 43ZM476 118Q450 58 402 24T282
-10Q233 -10 190 7T114 59T63 143T44 260Q44 326 63 376T114 460T189 511T283 529Q349 529 398 499T474 412V716H533V0H481L476 118Z" />
<glyph unicode="e" glyph-name="e" horiz-adv-x="540" d="M284 477Q215 477 166 433T105 300H438Q441 345 430 378T398 434T348 466T284 477ZM484 45Q459 27 416 9T303 -10Q178 -10 111 61T43 260Q43 323 61 373T113 457T190 510T285 529Q337 529 379 512T450
459T490 371T492 249H103Q106 148 159 96T306 43Q363 43 402 60T468 97L484 45Z" />
<glyph unicode="f" glyph-name="f" horiz-adv-x="358" d="M174 468V0H115V468H47V519H115V542Q115 628 158 676T282 724Q317 724 343 715L333 663Q325 666 312 668T284 671Q230 671 202 639T174 542V519H328V468H174Z" />
<glyph unicode="g" glyph-name="g" horiz-adv-x="610" d="M289 74Q328 74 361 87T418 125T456 187T470 275Q470 325 457 362T419 425T361 464T288 477Q249 477 215 464T156 426T117 363T103 275Q103 225 117 188T156 125T215 87T289 74ZM267 -179Q223 -179 191
-174T135 -161T98 -146T79 -135L91 -81Q97 -84 111 -91T147 -106T199 -120T268 -126Q373 -126 421 -84T469 45V139Q443 84 396 53T280 21Q231 21 188 37T113 86T63 165T44 275Q44 337 62 384T113 464T189 512T281 529Q350 529 398 497T473 407V408Q473 447 475
476T480 519H534Q532 505 531 476T529 408V45Q529 -60 465 -119T267 -179Z" />
<glyph unicode="h" glyph-name="h" horiz-adv-x="584" d="M322 477Q284 477 256 467T205 439T168 399T140 350V0H81V716H140V513L139 411H142Q152 434 168 455T208 492T263 519T335 529Q415 529 461 488T508 364V0H448V359Q448 423 414 450T322 477Z" />
<glyph unicode="i" glyph-name="i" horiz-adv-x="221" d="M111 619Q91 619 80 632T68 662Q68 679 79 692T111 705Q131 705 142 692T153 662Q153 645 142 632T111 619ZM140 519V0H81V519H140Z" />
<glyph unicode="j" glyph-name="j" horiz-adv-x="229" d="M119 619Q99 619 88 632T76 662Q76 679 87 692T119 705Q139 705 150 692T162 662Q162 645 151 632T119 619ZM-8 -134Q46 -130 68 -104T90 -32V519H148V-29Q148 -95 114 -138T2 -187L-8 -134Z" />
<glyph unicode="k" glyph-name="k" horiz-adv-x="497" d="M203 238H141V0H81V716H141V289H207L403 519H471L252 265L468 0H396L203 238Z" />
<glyph unicode="l" glyph-name="l" horiz-adv-x="221" d="M140 716V0H81V716H140Z" />
<glyph unicode="m" glyph-name="m" horiz-adv-x="897" d="M140 0H81V519H134L139 410H141Q151 433 167 454T205 492T256 519T323 529Q386 529 427 498T477 403Q488 430 505 453T544 493T596 519T663 529Q737 529 779 488T822 364V0H762V358Q762 421 731 449T649
477Q614 477 588 466T542 437T508 395T481 346V0H422V363Q422 425 391 451T308 477Q273 477 247 467T202 439T167 399T140 350V0Z" />
<glyph unicode="n" glyph-name="n" horiz-adv-x="584" d="M322 477Q284 477 256 467T205 439T168 399T140 350V0H81V519H137L139 410H141Q151 433 167 454T208 492T263 519T335 529Q415 529 461 488T508 364V0H449V359Q449 423 415 450T322 477Z" />
<glyph unicode="o" glyph-name="o" horiz-adv-x="579" d="M289 -10Q236 -10 191 8T113 60T62 145T43 260Q43 324 61 374T113 458T191 511T289 529Q342 529 387 511T466 459T518 374T537 260Q537 196 518 146T466 61T388 8T289 -10ZM289 43Q329 43 363 57T423 98T462
165T477 260Q477 314 463 354T423 422T364 463T289 477Q249 477 215 464T156 423T117 355T103 260Q103 206 117 166T156 98T215 57T289 43Z" />
<glyph unicode="p" glyph-name="p" horiz-adv-x="614" d="M326 43Q366 43 399 57T457 98T496 166T510 260Q510 313 496 353T458 421T400 463T326 477Q286 477 252 463T192 422T153 354T139 260Q139 207 153 167T192 99T251 57T326 43ZM332 -10Q265 -10 216 22T140
114V-177H81V519H134L139 405V403Q165 463 214 496T334 529Q383 529 426 512T501 461T551 377T570 260Q570 194 551 144T500 59T425 8T332 -10Z" />
<glyph unicode="q" glyph-name="q" horiz-adv-x="614" d="M474 -177V114Q448 56 400 23T282 -10Q233 -10 190 7T114 59T63 143T44 260Q44 326 63 376T114 460T189 511T283 529Q352 529 401 497T477 406V408Q477 447 479 476T483 519H538Q536 505 535 476T533 408V-177H474ZM289
43Q329 43 363 57T422 98T461 166T475 260Q475 313 461 353T422 421T363 463T289 477Q249 477 215 463T157 422T118 354T104 260Q104 207 118 167T156 99T215 57T289 43Z" />
<glyph unicode="r" glyph-name="r" horiz-adv-x="353" d="M320 466Q258 461 211 430T140 334V0H81V519H134L139 395H141Q150 419 165 441T203 482T254 512T320 529V466V466Z" />
<glyph unicode="s" glyph-name="s" horiz-adv-x="476" d="M234 -10Q160 -10 114 6T44 39L58 92Q82 74 127 57T235 40Q262 40 287 45T330 63T360 94T372 140Q372 167 362 184T333 212T288 229T229 243Q193 250 161 260T105 286T67 326T53 387Q53 457 105 493T244
529Q302 529 341 519T406 494L391 443Q365 457 331 468T244 479Q186 479 149 459T111 388Q111 366 120 352T146 327T188 310T242 297Q278 289 312 280T373 255T415 211T431 141Q431 99 415 71T371 24T309 -2T234 -10Z" />
<glyph unicode="t" glyph-name="t" horiz-adv-x="357" d="M320 8Q306 0 283 -5T234 -10Q199 -10 174 0T133 26T110 65T102 114V468H34V519H102V628H162V519H312V468H162V121Q162 85 180 64T240 43Q260 43 277 47T309 59L320 8V8Z" />
<glyph unicode="u" glyph-name="u" horiz-adv-x="570" d="M429 107Q419 83 403 62T364 25T311 0T242 -10Q165 -10 121 33T76 161V519H135V161Q135 96 169 70T256 43Q291 43 318 52T366 78T402 117T430 167V519H489V0H436L431 107H429V107Z" />
<glyph unicode="v" glyph-name="v" horiz-adv-x="497" d="M25 519H88L251 35L418 519H478L295 0H201L25 519Z" />
<glyph unicode="w" glyph-name="w" horiz-adv-x="736" d="M32 519H94L205 47L336 519H406L535 47L646 519H704L580 0H489L367 439L245 0H157L32 519Z" />
<glyph unicode="x" glyph-name="x" horiz-adv-x="487" d="M238 224L82 0H22L208 269L33 519H104L248 313L388 519H450L279 270L466 0H396L238 224Z" />
<glyph unicode="y" glyph-name="y" horiz-adv-x="504" d="M102 -187Q73 -187 56 -180L63 -129Q69 -131 78 -132T101 -134Q142 -134 168 -106T220 -17L19 519H83L252 59L426 519H484L291 7Q273 -40 255 -76T214 -137T165 -174T102 -187Z" />
<glyph unicode="z" glyph-name="z" horiz-adv-x="456" d="M37 0V39L339 468H45V519H414V481L112 51H415V0H37Z" />
<glyph unicode="{" glyph-name="braceleft" horiz-adv-x="288" d="M269 -137Q183 -147 138 -113T92 -6Q92 19 97 41T110 84T122 129T127 178Q127 197 124 214T110 246T80 270T27 283V334Q60 337 79 346T109 370T123 403T127 442Q127 467 122 489T110 533T98 576T92
621Q92 693 136 729T269 755V707Q206 712 179 690T152 620Q152 596 157 575T167 533T178 490T183 442Q183 421 179 402T165 365T136 333T87 309Q117 299 135 285T164 253T179 217T183 178Q183 151 178 129T168 85T157 43T152 -4Q152 -52 179 -73T269 -89V-137V-137Z"
/>
<glyph unicode="|" glyph-name="bar" horiz-adv-x="262" d="M159 756V-120H103V756H159Z" />
<glyph unicode="}" glyph-name="braceright" horiz-adv-x="288" d="M19 -137Q105 -147 150 -113T196 -6Q196 19 191 41T178 84T166 129T161 178Q161 197 164 214T178 246T208 270T261 283V334Q228 337 209 346T179 370T165 403T161 442Q161 467 166 489T178 533T190
576T196 621Q196 693 152 729T19 755V707Q82 712 109 690T136 620Q136 596 131 575T121 533T110 490T105 442Q105 421 109 402T123 365T152 333T201 309Q171 299 153 285T124 253T109 217T105 178Q105 151 110 129T120 85T131 43T136 -4Q136 -52 109 -73T19 -89V-137V-137Z"
/>
<glyph unicode="~" glyph-name="asciitilde" horiz-adv-x="597" d="M51 252Q48 282 53 311T74 362T116 399T181 413Q223 413 253 397T310 362T360 327T415 311Q456 311 475 336T493 419H545Q548 389 543 360T522 309T480 272T415 258Q373 258 343 274T286 309T236
344T181 360Q142 360 122 335T104 252H51V252Z" />
<glyph unicode="&#xa0;" glyph-name="uni00A0" horiz-adv-x="196" />
<glyph unicode="&#xa1;" glyph-name="exclamdown" horiz-adv-x="268" d="M97 -183L104 350H152L158 -183H97ZM129 530Q151 530 164 516T178 482Q178 461 165 448T129 434Q107 434 94 447T81 482Q81 502 94 516T129 530Z" />
<glyph unicode="&#xa2;" glyph-name="cent" horiz-adv-x="556" d="M323 642V529Q358 527 389 519Q429 510 458 492L443 440Q417 455 382 466Q354 474 323 476V43Q354 45 379 53Q413 63 441 81L456 31Q430 12 392 1Q362 -8 323 -9V-140H272V-8Q234 -5 200 8Q153
26 119 60T65 145T46 259Q46 322 65 372T118 457T201 510Q234 523 272 527V642H323ZM160 420Q106 364 106 259Q106 208 120 168T161 100T223 57Q246 48 272 44V475Q203 466 160 420Z" />
<glyph unicode="&#xa3;" glyph-name="sterling" horiz-adv-x="556" d="M518 0H49V36Q100 78 126 121T153 224Q153 249 149 272T138 318H45V368H122Q110 403 100 439T90 516Q90 611 147 668T320 726Q384 726 424 711T486 678L474 622Q451 642 412 657T321 672Q273
672 241 659T188 625T160 574T151 512Q152 471 162 437T184 368H378V318H200Q205 300 207 281T210 242Q210 186 191 142T128 54H518V0Z" />
<glyph unicode="&#xa4;" glyph-name="currency" horiz-adv-x="554" d="M278 496Q248 496 221 485T175 454T144 406T132 342Q132 307 143 279T174 231T221 200T278 189Q308 189 334 200T380 231T411 279T423 342Q423 377 412 405T381 454T335 485T278 496ZM402
183Q376 163 344 152T277 140Q241 140 210 151T152 182L84 114L49 149L117 217Q97 243 86 274T75 342Q75 379 86 410T117 468L49 536L84 571L152 503Q178 523 209 534T277 545Q349 545 402 503L470 572L505 536L437 468Q457 442 468 411T480 342Q480 306 469 275T437
217L505 149L470 115L402 183Z" />
<glyph unicode="&#xa5;" glyph-name="yen" horiz-adv-x="556" d="M309 165V0H249V165H72V213H249V315H72V363H236L25 716H94L281 395L470 716H533L322 363H487V315H309V213H487V165H309Z" />
<glyph unicode="&#xa6;" glyph-name="brokenbar" horiz-adv-x="262" d="M159 756V356H103V756H159ZM159 280V-120H103V280H159Z" />
<glyph unicode="&#xa7;" glyph-name="section" horiz-adv-x="571" d="M299 163Q333 163 362 169T413 189T447 223T460 271Q460 328 411 357T270 387Q192 387 149 361T105 278Q105 245 122 223T168 188T230 169T299 163ZM253 -187Q209 -187 174 -181T114 -165T71
-146T44 -127L54 -75Q65 -84 83 -94T127 -114T184 -130T252 -137Q285 -137 315 -131T368 -110T404 -74T418 -20Q418 11 407 32T373 68T318 93T244 112Q208 119 173 130T111 159T66 205T48 275Q48 334 86 373T194 423Q143 446 117 480T90 567Q90 645 148 685T312
726Q346 726 372 723T418 714T454 702T483 688L472 636Q442 654 403 665T311 676Q230 676 189 651T147 569Q147 539 159 519T192 484T242 461T305 446Q339 439 377 429T446 401T498 352T519 275Q519 215 481 179T376 129Q424 108 450 73T476 -19Q476 -66 457 -98T407
-150T335 -178T253 -187Z" />
<glyph unicode="&#xa8;" glyph-name="dieresis" horiz-adv-x="456" d="M328 619Q308 619 297 631T286 661Q286 678 297 691T328 704Q348 704 359 691T370 661Q370 644 359 632T328 619ZM127 619Q107 619 96 631T85 661Q85 678 96 691T127 704Q147 704 158 691T170
661Q170 644 159 632T127 619Z" />
<glyph unicode="&#xa9;" glyph-name="copyright" horiz-adv-x="907" d="M454 -96Q367 -96 292 -66T162 20T75 150T43 316Q43 406 74 481T161 610T292 695T454 726Q541 726 616 696T746 611T833 481T865 316Q865 226 834 151T747 20T616 -65T454 -96ZM454 -52Q535
-52 601 -25T715 52T789 168T816 316Q816 395 790 462T716 578T602 654T454 682Q374 682 307 655T192 579T118 463T91 316Q91 236 117 169T192 52T307 -24T454 -52ZM469 100Q373 100 318 156T263 313Q263 415 319 472T468 529Q511 529 541 519T590 494L576 446Q557
463 528 472T467 481Q398 481 358 438T318 314Q318 233 357 191T467 148Q501 148 528 158T575 186L590 139Q573 124 543 112T469 100Z" />
<glyph unicode="&#xaa;" glyph-name="ordfeminine" horiz-adv-x="460" d="M199 362Q239 362 266 378T311 416T336 459T344 488V546H251Q172 546 136 522T99 452Q99 408 125 385T199 362ZM345 415Q338 398 326 380T295 348T250 324T188 314Q123 314 84 350T45 449Q45
520 97 554T246 589H344V630Q344 734 231 734Q183 734 147 720T84 689L73 737Q95 752 136 767T232 782Q309 782 353 748T398 641V404Q398 382 399 360T402 323H353Q350 337 348 358T346 404L345 415Z" />
<glyph unicode="&#xab;" glyph-name="guillemotleft" horiz-adv-x="505" d="M194 69L51 264L194 459H258L114 264L258 69H194ZM397 69L252 264L397 459H460L316 264L460 69H397Z" />
<glyph unicode="&#xac;" glyph-name="logicalnot" horiz-adv-x="586" d="M477 112V324H51V372H533V112H477Z" />
<glyph unicode="&#xae;" glyph-name="registered" horiz-adv-x="907" d="M454 -96Q367 -96 292 -66T162 20T75 150T43 316Q43 406 74 481T161 610T292 695T454 726Q541 726 616 696T746 611T833 481T865 316Q865 226 834 151T747 20T616 -65T454 -96ZM454 -52Q535
-52 601 -25T715 52T789 168T816 316Q816 395 790 462T716 578T602 654T454 682Q374 682 307 655T192 579T118 463T91 316Q91 236 117 169T192 52T307 -24T454 -52ZM379 476V326H458Q503 326 529 344T556 404Q556 442 533 459T465 476H379ZM460 278H379V107H325V524H465Q536
524 574 496T612 407Q612 354 587 325T516 286L624 107H562L460 278Z" />
<glyph unicode="&#xaf;" glyph-name="macron" horiz-adv-x="456" d="M97 677H359V627H97V677Z" />
<glyph unicode="&#xb0;" glyph-name="degree" horiz-adv-x="509" d="M255 362Q216 362 183 375T125 413T87 471T73 544Q73 584 86 617T124 675T182 712T255 726Q294 726 327 713T385 675T423 618T437 544Q437 505 424 472T386 414T328 376T255 362ZM255 406Q316
406 352 443T388 544Q388 607 352 644T255 682Q194 682 158 645T121 544Q121 481 157 444T255 406Z" />
<glyph unicode="&#xb1;" glyph-name="plusminus" horiz-adv-x="556" d="M564 313V121H508V313H308V362H508V582H564V362H764V313H564ZM308 0V49H764V0H308Z" />
<glyph unicode="&#xb2;" glyph-name="two.sup" horiz-adv-x="374" d="M37 325V379Q103 430 147 468T219 537T258 594T270 647Q270 686 245 711T165 737Q133 737 106 728T60 706L51 751Q68 763 98 773T168 783Q247 783 286 746T326 647Q326 616 313 586T272 524T200
454T94 372H329V325H37Z" />
<glyph unicode="&#xb3;" glyph-name="three.sup" horiz-adv-x="362" d="M151 319Q109 319 76 328T23 351L30 397Q47 385 77 375T146 364Q209 364 235 388T262 452Q262 494 236 516T160 539H98V585H163Q201 585 223 605T246 663Q246 695 224 716T146 738Q114 738
89 730T46 709L39 754Q58 766 87 774T152 782Q224 782 262 750T301 666Q301 622 278 598T225 565Q263 557 290 529T318 450Q318 392 274 356T151 319Z" />
<glyph unicode="&#xb4;" glyph-name="acute" horiz-adv-x="456" d="M246 746H325L211 593H158L246 746Z" />
<glyph unicode="&#xb6;" glyph-name="paragraph" horiz-adv-x="617" d="M531 -187H475V716H531V-187ZM328 -187V279H298Q241 279 195 293T114 334T62 402T43 497Q43 606 107 661T290 716H385V-187H328Z" />
<glyph unicode="&#xb7;" glyph-name="periodcentered" horiz-adv-x="222" d="M112 234Q89 234 76 248T62 283Q62 305 75 319T112 333Q134 333 147 319T161 283Q161 263 148 249T112 234Z" />
<glyph unicode="&#xb8;" glyph-name="cedilla" horiz-adv-x="456" d="M272 14L213 -171H144L219 14H272Z" />
<glyph unicode="&#xb9;" glyph-name="one.sup" horiz-adv-x="272" d="M141 325V713L39 623V679L149 776H196V325H141Z" />
<glyph unicode="&#xba;" glyph-name="ordmasculine" horiz-adv-x="499" d="M249 314Q203 314 164 330T97 376T52 449T35 549Q35 604 51 647T96 721T164 766T249 782Q295 782 334 767T403 721T448 648T465 549Q465 493 449 450T403 376T335 330T249 314ZM249 363Q283
363 312 375T364 410T398 468T410 549Q410 595 398 629T364 687T313 722T249 734Q180 734 135 688T90 549Q90 456 135 410T249 363Z" />
<glyph unicode="&#xbb;" glyph-name="guillemotright" horiz-adv-x="505" d="M189 264L46 459H109L253 264L109 69H46L189 264ZM391 264L248 459H311L455 264L311 69H248L391 264Z" />
<glyph unicode="&#xbc;" glyph-name="onequarter" horiz-adv-x="949" d="M149 0L733 716H790L208 0H149ZM777 391L607 154H777V391ZM830 109V1H777V109H552V149L770 452H830V154H897V109H830ZM141 265V653L39 563V619L149 716H196V265H141Z" />
<glyph unicode="&#xbd;" glyph-name="onehalf" horiz-adv-x="1023" d="M149 0L733 716H790L208 0H149ZM654 1V55Q720 106 764 144T836 213T875 270T887 323Q887 362 862 387T782 413Q750 413 723 404T677 382L668 427Q685 439 715 449T785 459Q864 459 903 422T943
323Q943 292 930 262T889 200T817 130T711 48H946V1H654ZM141 265V653L39 563V619L149 716H196V265H141Z" />
<glyph unicode="&#xbe;" glyph-name="threequarters" horiz-adv-x="1003" d="M203 0L787 716H844L262 0H203ZM831 391L661 154H831V391ZM884 109V1H831V109H606V149L824 452H884V154H951V109H884ZM151 259Q109 259 76 268T23 291L30 337Q47 325 77 315T146 304Q209
304 235 328T262 392Q262 434 236 456T160 479H98V525H163Q201 525 223 545T246 603Q246 635 224 656T146 678Q114 678 89 670T46 649L39 694Q58 706 87 714T152 722Q224 722 262 690T301 606Q301 562 278 538T225 505Q263 497 290 469T318 390Q318 332 274 296T151
259Z" />
<glyph unicode="&#xbf;" glyph-name="questiondown" horiz-adv-x="480" d="M60 -10Q60 25 68 52T89 100T121 139T161 171Q184 186 208 201T252 234T284 275T297 330V348H347V331Q347 287 334 257T300 204T254 166T203 132Q186 120 171 107T145 77T127 39T120 -10Q120
-39 128 -64T156 -109T204 -139T277 -150Q324 -150 360 -139T419 -115L433 -166Q410 -179 373 -191T279 -203Q169 -203 115 -150T60 -10ZM320 528Q342 528 355 514T368 480Q368 459 355 446T320 432Q298 432 285 445T271 480Q271 500 284 514T320 528Z" />
<glyph unicode="&#xc0;" glyph-name="Agrave" horiz-adv-x="641" d="M316 665L180 278H453L316 665ZM473 222H160L82 0H23L275 716H365L618 0H552L473 222ZM295 778L186 908H268L353 778H295Z" />
<glyph unicode="&#xc1;" glyph-name="Aacute" horiz-adv-x="641" d="M316 665L180 278H453L316 665ZM473 222H160L82 0H23L275 716H365L618 0H552L473 222ZM373 908H455L345 778H288L373 908Z" />
<glyph unicode="&#xc2;" glyph-name="Acircumflex" horiz-adv-x="641" d="M316 665L180 278H453L316 665ZM473 222H160L82 0H23L275 716H365L618 0H552L473 222ZM318 865L222 771H170L283 909H353L467 771H414L318 865Z" />
<glyph unicode="&#xc3;" glyph-name="Atilde" horiz-adv-x="641" d="M316 665L180 278H453L316 665ZM473 222H160L82 0H23L275 716H365L618 0H552L473 222ZM159 790Q157 813 161 834T176 872T204 898T246 908Q269 908 288 898T325 877T357 855T388 845Q408 845
418 860T430 911H475Q477 888 473 867T458 829T430 804T388 794Q365 794 346 803T309 825T277 846T246 856Q226 856 216 841T205 790H159V790Z" />
<glyph unicode="&#xc4;" glyph-name="Adieresis" horiz-adv-x="641" d="M316 665L180 278H453L316 665ZM473 222H160L82 0H23L275 716H365L618 0H552L473 222ZM425 800Q405 800 394 812T383 842Q383 859 394 872T425 885Q445 885 456 872T467 842Q467 825 456
813T425 800ZM211 800Q191 800 180 812T169 842Q169 859 180 872T211 885Q231 885 242 872T253 842Q253 825 242 813T211 800Z" />
<glyph unicode="&#xc5;" glyph-name="Aring" horiz-adv-x="641" d="M316 665L180 278H453L316 665ZM473 222H160L82 0H23L275 716H365L618 0H552L473 222ZM318 764Q273 764 243 793T213 868Q213 890 221 909T243 941T276 963T318 971Q363 971 393 942T423 868Q423
822 393 793T318 764ZM318 804Q345 804 363 821T381 868Q381 897 363 914T318 931Q291 931 274 914T256 868Q256 839 273 822T318 804Z" />
<glyph unicode="&#xc6;" glyph-name="AE" horiz-adv-x="964" d="M473 672L245 283H473V672ZM473 226H212L79 0H15L435 716H897V659H537V401H844V344H537V57H902V0H473V226Z" />
<glyph unicode="&#xc7;" glyph-name="Ccedilla" horiz-adv-x="662" d="M253 15Q190 41 145 88T76 204T51 358Q51 445 74 513T142 628T250 701T392 726Q468 726 521 708T607 664L594 602Q557 632 506 650T392 669Q261 669 190 589T118 358Q118 207 192 127T398
47Q458 47 504 64T589 111L607 57Q577 31 524 11T395 -10L342 -176H273L341 -7Q295 -1 253 15Z" />
<glyph unicode="&#xc8;" glyph-name="Egrave" horiz-adv-x="573" d="M92 716H505V659H156V401H458V344H156V57H510V0H92V716ZM292 778L183 908H265L350 778H292Z" />
<glyph unicode="&#xc9;" glyph-name="Eacute" horiz-adv-x="573" d="M92 716H505V659H156V401H458V344H156V57H510V0H92V716ZM356 908H438L328 778H271L356 908Z" />
<glyph unicode="&#xca;" glyph-name="Ecircumflex" horiz-adv-x="573" d="M92 716H505V659H156V401H458V344H156V57H510V0H92V716ZM306 865L210 771H158L271 909H341L455 771H402L306 865Z" />
<glyph unicode="&#xcb;" glyph-name="Edieresis" horiz-adv-x="573" d="M92 716H505V659H156V401H458V344H156V57H510V0H92V716ZM408 800Q388 800 377 812T366 842Q366 859 377 872T408 885Q428 885 439 872T450 842Q450 825 439 813T408 800ZM194 800Q174 800
163 812T152 842Q152 859 163 872T194 885Q214 885 225 872T236 842Q236 825 225 813T194 800Z" />
<glyph unicode="&#xcc;" glyph-name="Igrave" horiz-adv-x="247" d="M156 716V0H92V716H156ZM101 778L-8 908H74L159 778H101Z" />
<glyph unicode="&#xcd;" glyph-name="Iacute" horiz-adv-x="247" d="M156 716V0H92V716H156ZM430 908H512L402 778H345L430 908Z" />
<glyph unicode="&#xce;" glyph-name="Icircumflex" horiz-adv-x="247" d="M156 716V0H92V716H156ZM381 865L285 771H233L346 909H416L530 771H477L381 865Z" />
<glyph unicode="&#xcf;" glyph-name="Idieresis" horiz-adv-x="247" d="M219 801Q199 801 188 813T176 843Q176 860 187 873T219 886Q239 886 250 873T261 843Q261 826 250 814T219 801ZM31 801Q11 801 0 813T-12 843Q-12 860 -1 873T31 886Q51 886 62 873T73
843Q73 826 62 814T31 801ZM156 716V0H92V716H156Z" />
<glyph unicode="&#xd0;" glyph-name="Eth" horiz-adv-x="748" d="M190 340V57H354Q414 57 464 76T551 135T609 235T630 376Q630 457 610 511T553 598T469 645T365 659H190V392H418V340H190ZM126 340H21V392H126V716H365Q434 716 494 699T600 642T671 538T697 379Q697
285 671 214T599 96T489 24T353 0H126V340Z" />
<glyph unicode="&#xd1;" glyph-name="Ntilde" horiz-adv-x="743" d="M151 645V0H92V716H178L592 67V716H651V0H563L151 645ZM228 790Q226 813 230 834T245 872T273 898T315 908Q338 908 357 898T394 877T426 855T457 845Q477 845 487 860T499 911H544Q546 888
542 867T527 829T499 804T457 794Q434 794 415 803T378 825T346 846T315 856Q295 856 285 841T274 790H228V790Z" />
<glyph unicode="&#xd2;" glyph-name="Ograve" horiz-adv-x="776" d="M388 -10Q316 -10 255 15T148 87T77 203T51 359Q51 448 76 516T147 631T254 702T388 726Q461 726 522 702T629 632T699 517T725 359Q725 272 700 204T629 88T523 15T388 -10ZM388 47Q447 47
496 66T582 123T638 220T659 358Q659 437 639 495T582 592T497 650T388 669Q329 669 280 650T194 593T138 496T118 358Q118 279 138 221T194 124T279 66T388 47ZM367 778L258 908H340L425 778H367Z" />
<glyph unicode="&#xd3;" glyph-name="Oacute" horiz-adv-x="776" d="M388 -10Q316 -10 255 15T148 87T77 203T51 359Q51 448 76 516T147 631T254 702T388 726Q461 726 522 702T629 632T699 517T725 359Q725 272 700 204T629 88T523 15T388 -10ZM388 47Q447 47
496 66T582 123T638 220T659 358Q659 437 639 495T582 592T497 650T388 669Q329 669 280 650T194 593T138 496T118 358Q118 279 138 221T194 124T279 66T388 47ZM438 908H520L410 778H353L438 908Z" />
<glyph unicode="&#xd4;" glyph-name="Ocircumflex" horiz-adv-x="776" d="M388 -10Q316 -10 255 15T148 87T77 203T51 359Q51 448 76 516T147 631T254 702T388 726Q461 726 522 702T629 632T699 517T725 359Q725 272 700 204T629 88T523 15T388 -10ZM388 47Q447
47 496 66T582 123T638 220T659 358Q659 437 639 495T582 592T497 650T388 669Q329 669 280 650T194 593T138 496T118 358Q118 279 138 221T194 124T279 66T388 47ZM389 865L293 771H241L354 909H424L538 771H485L389 865Z" />
<glyph unicode="&#xd5;" glyph-name="Otilde" horiz-adv-x="776" d="M388 -10Q316 -10 255 15T148 87T77 203T51 359Q51 448 76 516T147 631T254 702T388 726Q461 726 522 702T629 632T699 517T725 359Q725 272 700 204T629 88T523 15T388 -10ZM388 47Q447 47
496 66T582 123T638 220T659 358Q659 437 639 495T582 592T497 650T388 669Q329 669 280 650T194 593T138 496T118 358Q118 279 138 221T194 124T279 66T388 47ZM228 790Q226 813 230 834T245 872T273 898T315 908Q338 908 357 898T394 877T426 855T457 845Q477
845 487 860T499 911H544Q546 888 542 867T527 829T499 804T457 794Q434 794 415 803T378 825T346 846T315 856Q295 856 285 841T274 790H228V790Z" />
<glyph unicode="&#xd6;" glyph-name="Odieresis" horiz-adv-x="776" d="M388 -10Q316 -10 255 15T148 87T77 203T51 359Q51 448 76 516T147 631T254 702T388 726Q461 726 522 702T629 632T699 517T725 359Q725 272 700 204T629 88T523 15T388 -10ZM388 47Q447
47 496 66T582 123T638 220T659 358Q659 437 639 495T582 592T497 650T388 669Q329 669 280 650T194 593T138 496T118 358Q118 279 138 221T194 124T279 66T388 47ZM496 800Q476 800 465 812T454 842Q454 859 465 872T496 885Q516 885 527 872T538 842Q538 825
527 813T496 800ZM282 800Q262 800 251 812T240 842Q240 859 251 872T282 885Q302 885 313 872T324 842Q324 825 313 813T282 800Z" />
<glyph unicode="&#xd7;" glyph-name="multiply" horiz-adv-x="556" d="M278 305L98 121L63 157L242 342L65 524L100 560L278 378L455 560L491 524L313 342L493 158L457 121L278 305Z" />
<glyph unicode="&#xd8;" glyph-name="Oslash" horiz-adv-x="776" d="M388 -10Q316 -10 254 15Q243 19 232 25L178 -70H116L185 53Q165 69 147 87Q102 135 77 203T51 359Q51 448 76 516T147 631T254 702T388 726Q461 726 522 702Q534 697 546 692L599 786H661L592
664Q612 649 629 631Q674 585 699 517T725 359Q725 272 700 204T629 88T523 15T388 -10ZM496 650Q447 669 388 669Q329 669 280 650T194 593T138 496T118 358Q118 279 138 221T194 123Q203 113 214 104L517 641Q507 646 496 650ZM388 47Q447 47 496 66T582 123T638
220T659 358Q659 437 639 495T582 592Q573 602 562 611L259 74Q269 70 279 66Q329 47 388 47Z" />
<glyph unicode="&#xd9;" glyph-name="Ugrave" horiz-adv-x="693" d="M76 716H140V247Q140 196 154 159T196 96T260 59T344 47Q389 47 428 59T495 96T540 159T557 248V716H617V250Q617 187 596 139T538 57T451 7T343 -10Q286 -10 237 6T152 54T96 134T76 246V716ZM338
778L229 908H311L396 778H338Z" />
<glyph unicode="&#xda;" glyph-name="Uacute" horiz-adv-x="693" d="M76 716H140V247Q140 196 154 159T196 96T260 59T344 47Q389 47 428 59T495 96T540 159T557 248V716H617V250Q617 187 596 139T538 57T451 7T343 -10Q286 -10 237 6T152 54T96 134T76 246V716ZM397
908H479L369 778H312L397 908Z" />
<glyph unicode="&#xdb;" glyph-name="Ucircumflex" horiz-adv-x="693" d="M76 716H140V247Q140 196 154 159T196 96T260 59T344 47Q389 47 428 59T495 96T540 159T557 248V716H617V250Q617 187 596 139T538 57T451 7T343 -10Q286 -10 237 6T152 54T96 134T76 246V716ZM347
865L251 771H199L312 909H382L496 771H443L347 865Z" />
<glyph unicode="&#xdc;" glyph-name="Udieresis" horiz-adv-x="693" d="M76 716H140V247Q140 196 154 159T196 96T260 59T344 47Q389 47 428 59T495 96T540 159T557 248V716H617V250Q617 187 596 139T538 57T451 7T343 -10Q286 -10 237 6T152 54T96 134T76 246V716ZM454
800Q434 800 423 812T412 842Q412 859 423 872T454 885Q474 885 485 872T496 842Q496 825 485 813T454 800ZM240 800Q220 800 209 812T198 842Q198 859 209 872T240 885Q260 885 271 872T282 842Q282 825 271 813T240 800Z" />
<glyph unicode="&#xdd;" glyph-name="Yacute" horiz-adv-x="599" d="M268 0V311L17 716H88L303 366L518 716H582L332 312V0H268ZM349 908H431L321 778H264L349 908Z" />
<glyph unicode="&#xde;" glyph-name="Thorn" horiz-adv-x="604" d="M156 507V209H308Q396 209 444 245T493 367Q493 439 449 473T318 507H156ZM156 152V0H92V716H156V564H318Q431 564 493 517T556 367Q556 311 539 270T489 203T411 165T308 152H156Z" />
<glyph unicode="&#xdf;" glyph-name="germandbls" horiz-adv-x="582" d="M375 -10Q328 -10 295 -2T239 21L251 72Q275 58 304 49T374 40Q428 40 458 65T488 134Q488 155 480 171T457 199T424 220T385 238Q364 247 343 257T305 280T278 313T267 358Q267 384 278
402T306 436T342 464T379 492T407 527T418 573Q418 623 382 648T289 673Q218 673 179 632T140 511V0H81V511Q81 611 135 668T289 726Q380 726 428 684T476 575Q476 543 465 520T437 479T400 447T364 419T336 392T324 361Q324 347 331 337T352 318T381 301T415 286Q438
275 462 263T505 234T536 193T548 136Q548 98 535 71T499 25T444 -1T375 -10Z" />
<glyph unicode="&#xe0;" glyph-name="agrave" horiz-adv-x="525" d="M220 43Q254 43 281 53T330 80T366 116T390 152V260H291Q191 260 148 231T104 147Q104 97 135 70T220 43ZM399 0Q396 15 394 40T392 94Q381 76 366 58T328 24T276 0T210 -10Q134 -10 90 31T45
145Q45 227 106 268T286 309H390V354Q390 423 353 450T251 477Q197 477 155 463T87 432L71 481Q97 499 144 514T254 529Q342 529 395 489T449 361V94Q449 68 450 42T454 0H399ZM494 593L380 746H459L546 593H494Z" />
<glyph unicode="&#xe1;" glyph-name="aacute" horiz-adv-x="525" d="M220 43Q254 43 281 53T330 80T366 116T390 152V260H291Q191 260 148 231T104 147Q104 97 135 70T220 43ZM399 0Q396 15 394 40T392 94Q381 76 366 58T328 24T276 0T210 -10Q134 -10 90 31T45
145Q45 227 106 268T286 309H390V354Q390 423 353 450T251 477Q197 477 155 463T87 432L71 481Q97 499 144 514T254 529Q342 529 395 489T449 361V94Q449 68 450 42T454 0H399ZM313 746H392L278 593H225L313 746Z" />
<glyph unicode="&#xe2;" glyph-name="acircumflex" horiz-adv-x="525" d="M220 43Q254 43 281 53T330 80T366 116T390 152V260H291Q191 260 148 231T104 147Q104 97 135 70T220 43ZM399 0Q396 15 394 40T392 94Q381 76 366 58T328 24T276 0T210 -10Q134 -10 90
31T45 145Q45 227 106 268T286 309H390V354Q390 423 353 450T251 477Q197 477 155 463T87 432L71 481Q97 499 144 514T254 529Q342 529 395 489T449 361V94Q449 68 450 42T454 0H399ZM254 691L161 593H108L218 736H288L399 593H346L254 691Z" />
<glyph unicode="&#xe3;" glyph-name="atilde" horiz-adv-x="525" d="M220 43Q254 43 281 53T330 80T366 116T390 152V260H291Q191 260 148 231T104 147Q104 97 135 70T220 43ZM399 0Q396 15 394 40T392 94Q381 76 366 58T328 24T276 0T210 -10Q134 -10 90 31T45
145Q45 227 106 268T286 309H390V354Q390 423 353 450T251 477Q197 477 155 463T87 432L71 481Q97 499 144 514T254 529Q342 529 395 489T449 361V94Q449 68 450 42T454 0H399ZM99 602Q97 624 101 644T115 680T143 705T183 715Q205 715 224 706T259 686T291 665T320
656Q358 656 360 718H405Q406 697 402 677T388 640T361 615T321 605Q299 605 280 614T245 634T213 654T184 663Q144 663 144 602H99V602Z" />
<glyph unicode="&#xe4;" glyph-name="adieresis" horiz-adv-x="525" d="M220 43Q254 43 281 53T330 80T366 116T390 152V260H291Q191 260 148 231T104 147Q104 97 135 70T220 43ZM399 0Q396 15 394 40T392 94Q381 76 366 58T328 24T276 0T210 -10Q134 -10 90 31T45
145Q45 227 106 268T286 309H390V354Q390 423 353 450T251 477Q197 477 155 463T87 432L71 481Q97 499 144 514T254 529Q342 529 395 489T449 361V94Q449 68 450 42T454 0H399ZM354 619Q334 619 323 631T312 661Q312 678 323 691T354 704Q374 704 385 691T396 661Q396
644 385 632T354 619ZM153 619Q133 619 122 631T111 661Q111 678 122 691T153 704Q173 704 184 691T196 661Q196 644 185 632T153 619Z" />
<glyph unicode="&#xe5;" glyph-name="aring" horiz-adv-x="525" d="M220 43Q254 43 281 53T330 80T366 116T390 152V260H291Q191 260 148 231T104 147Q104 97 135 70T220 43ZM399 0Q396 15 394 40T392 94Q381 76 366 58T328 24T276 0T210 -10Q134 -10 90 31T45
145Q45 227 106 268T286 309H390V354Q390 423 353 450T251 477Q197 477 155 463T87 432L71 481Q97 499 144 514T254 529Q342 529 395 489T449 361V94Q449 68 450 42T454 0H399ZM254 584Q209 584 179 613T149 688Q149 733 179 762T254 791Q276 791 295 784T328 762T351
729T359 688Q359 642 329 613T254 584ZM254 625Q281 625 299 642T317 688Q317 717 299 734T254 751Q227 751 210 734T192 688Q192 659 209 642T254 625Z" />
<glyph unicode="&#xe6;" glyph-name="ae" horiz-adv-x="884" d="M629 482Q596 482 567 471T514 437T475 382T454 305H780Q783 350 772 383T740 439T691 471T629 482ZM221 43Q261 43 290 56T340 90T373 132T392 171V258H280Q188 258 146 230T104 147Q104 97 135
70T221 43ZM648 -5Q563 -5 506 30T421 131Q414 111 399 87T360 41T300 5T215 -10Q135 -10 90 31T45 145Q45 227 105 267T276 307H392V347Q392 410 359 443T253 477Q201 477 158 461T88 427L72 478Q99 497 146 513T256 529Q326 529 372 504T436 423Q466 477 516
505T630 534Q681 534 723 517T793 464T832 376T833 254H452Q455 154 506 101T652 48Q708 48 750 66T814 102L830 50Q821 42 805 33T766 15T714 1T648 -5Z" />
<glyph unicode="&#xe7;" glyph-name="ccedilla" horiz-adv-x="500" d="M197 8Q150 26 116 60T62 145T43 259Q43 322 62 372T115 457T198 510T303 529Q347 529 386 520T455 492L440 440Q414 455 379 466T303 477Q211 477 157 421T103 259Q103 208 117 168T158 100T220
58T301 43Q343 43 376 53T438 81L453 31Q427 12 389 1Q356 -9 311 -10L260 -171H191L257 -7Q226 -3 197 8Z" />
<glyph unicode="&#xe8;" glyph-name="egrave" horiz-adv-x="540" d="M284 477Q215 477 166 433T105 300H438Q441 345 430 378T398 434T348 466T284 477ZM484 45Q459 27 416 9T303 -10Q178 -10 111 61T43 260Q43 323 61 373T113 457T190 510T285 529Q337 529 379
512T450 459T490 371T492 249H103Q106 148 159 96T306 43Q363 43 402 60T468 97L484 45ZM262 593L148 746H227L314 593H262Z" />
<glyph unicode="&#xe9;" glyph-name="eacute" horiz-adv-x="540" d="M284 477Q215 477 166 433T105 300H438Q441 345 430 378T398 434T348 466T284 477ZM484 45Q459 27 416 9T303 -10Q178 -10 111 61T43 260Q43 323 61 373T113 457T190 510T285 529Q337 529 379
512T450 459T490 371T492 249H103Q106 148 159 96T306 43Q363 43 402 60T468 97L484 45ZM334 746H413L299 593H246L334 746Z" />
<glyph unicode="&#xea;" glyph-name="ecircumflex" horiz-adv-x="540" d="M284 477Q215 477 166 433T105 300H438Q441 345 430 378T398 434T348 466T284 477ZM484 45Q459 27 416 9T303 -10Q178 -10 111 61T43 260Q43 323 61 373T113 457T190 510T285 529Q337 529
379 512T450 459T490 371T492 249H103Q106 148 159 96T306 43Q363 43 402 60T468 97L484 45ZM282 691L189 593H136L246 736H316L427 593H374L282 691Z" />
<glyph unicode="&#xeb;" glyph-name="edieresis" horiz-adv-x="540" d="M284 477Q215 477 166 433T105 300H438Q441 345 430 378T398 434T348 466T284 477ZM484 45Q459 27 416 9T303 -10Q178 -10 111 61T43 260Q43 323 61 373T113 457T190 510T285 529Q337 529
379 512T450 459T490 371T492 249H103Q106 148 159 96T306 43Q363 43 402 60T468 97L484 45ZM381 619Q361 619 350 631T339 661Q339 678 350 691T381 704Q401 704 412 691T423 661Q423 644 412 632T381 619ZM180 619Q160 619 149 631T138 661Q138 678 149 691T180
704Q200 704 211 691T223 661Q223 644 212 632T180 619Z" />
<glyph unicode="&#xec;" glyph-name="igrave" horiz-adv-x="221" d="M140 519V0H81V519H140ZM85 593L-29 746H50L137 593H85Z" />
<glyph unicode="&#xed;" glyph-name="iacute" horiz-adv-x="221" d="M140 519V0H81V519H140ZM425 746H504L390 593H337L425 746Z" />
<glyph unicode="&#xee;" glyph-name="icircumflex" horiz-adv-x="221" d="M140 519V0H81V519H140ZM366 691L273 593H220L330 736H400L511 593H458L366 691Z" />
<glyph unicode="&#xef;" glyph-name="idieresis" horiz-adv-x="221" d="M188 619Q168 619 157 631T146 661Q146 678 157 691T188 704Q208 704 219 691T230 661Q230 644 219 632T188 619ZM33 619Q13 619 2 631T-10 661Q-10 678 1 691T33 704Q53 704 65 691T77 661Q77
644 65 632T33 619ZM140 519V0H81V519H140Z" />
<glyph unicode="&#xf0;" glyph-name="eth" horiz-adv-x="590" d="M289 -10Q236 -10 191 8T113 61T62 146T43 260Q43 324 61 373T112 456T189 507T284 524Q336 524 375 507T445 453Q422 501 389 540T314 612L150 559L138 599L271 642Q236 664 200 680T128 708V716H214Q241
708 270 695T330 662L450 701L462 661L371 631Q405 603 436 568T490 490T527 397T541 289Q541 214 522 158T469 65T389 9T289 -10ZM288 43Q328 43 363 57T423 100T462 173T477 279Q477 310 474 339T462 391Q438 427 397 450T291 473Q250 473 216 460T156 421T117
354T103 260Q103 206 117 166T155 98T214 57T288 43Z" />
<glyph unicode="&#xf1;" glyph-name="ntilde" horiz-adv-x="584" d="M322 477Q284 477 256 467T205 439T168 399T140 350V0H81V519H137L139 410H141Q151 433 167 454T208 492T263 519T335 529Q415 529 461 488T508 364V0H449V359Q449 423 415 450T322 477ZM142
602Q140 624 144 644T158 680T186 705T226 715Q248 715 267 706T302 686T334 665T363 656Q401 656 403 718H448Q449 697 445 677T431 640T404 615T364 605Q342 605 323 614T288 634T256 654T227 663Q187 663 187 602H142V602Z" />
<glyph unicode="&#xf2;" glyph-name="ograve" horiz-adv-x="579" d="M289 -10Q236 -10 191 8T113 60T62 145T43 260Q43 324 61 374T113 458T191 511T289 529Q342 529 387 511T466 459T518 374T537 260Q537 196 518 146T466 61T388 8T289 -10ZM289 43Q329 43 363
57T423 98T462 165T477 260Q477 314 463 354T423 422T364 463T289 477Q249 477 215 464T156 423T117 355T103 260Q103 206 117 166T156 98T215 57T289 43ZM266 593L152 746H231L318 593H266Z" />
<glyph unicode="&#xf3;" glyph-name="oacute" horiz-adv-x="579" d="M289 -10Q236 -10 191 8T113 60T62 145T43 260Q43 324 61 374T113 458T191 511T289 529Q342 529 387 511T466 459T518 374T537 260Q537 196 518 146T466 61T388 8T289 -10ZM289 43Q329 43 363
57T423 98T462 165T477 260Q477 314 463 354T423 422T364 463T289 477Q249 477 215 464T156 423T117 355T103 260Q103 206 117 166T156 98T215 57T289 43ZM347 746H426L312 593H259L347 746Z" />
<glyph unicode="&#xf4;" glyph-name="ocircumflex" horiz-adv-x="579" d="M289 -10Q236 -10 191 8T113 60T62 145T43 260Q43 324 61 374T113 458T191 511T289 529Q342 529 387 511T466 459T518 374T537 260Q537 196 518 146T466 61T388 8T289 -10ZM289 43Q329
43 363 57T423 98T462 165T477 260Q477 314 463 354T423 422T364 463T289 477Q249 477 215 464T156 423T117 355T103 260Q103 206 117 166T156 98T215 57T289 43ZM289 691L196 593H143L253 736H323L434 593H381L289 691Z" />
<glyph unicode="&#xf5;" glyph-name="otilde" horiz-adv-x="579" d="M289 -10Q236 -10 191 8T113 60T62 145T43 260Q43 324 61 374T113 458T191 511T289 529Q342 529 387 511T466 459T518 374T537 260Q537 196 518 146T466 61T388 8T289 -10ZM289 43Q329 43 363
57T423 98T462 165T477 260Q477 314 463 354T423 422T364 463T289 477Q249 477 215 464T156 423T117 355T103 260Q103 206 117 166T156 98T215 57T289 43ZM134 602Q132 624 136 644T150 680T178 705T218 715Q240 715 259 706T294 686T326 665T355 656Q393 656 395
718H440Q441 697 437 677T423 640T396 615T356 605Q334 605 315 614T280 634T248 654T219 663Q179 663 179 602H134V602Z" />
<glyph unicode="&#xf6;" glyph-name="odieresis" horiz-adv-x="579" d="M289 -10Q236 -10 191 8T113 60T62 145T43 260Q43 324 61 374T113 458T191 511T289 529Q342 529 387 511T466 459T518 374T537 260Q537 196 518 146T466 61T388 8T289 -10ZM289 43Q329 43
363 57T423 98T462 165T477 260Q477 314 463 354T423 422T364 463T289 477Q249 477 215 464T156 423T117 355T103 260Q103 206 117 166T156 98T215 57T289 43ZM388 619Q368 619 357 631T346 661Q346 678 357 691T388 704Q408 704 419 691T430 661Q430 644 419 632T388
619ZM187 619Q167 619 156 631T145 661Q145 678 156 691T187 704Q207 704 218 691T230 661Q230 644 219 632T187 619Z" />
<glyph unicode="&#xf7;" glyph-name="divide" horiz-adv-x="556" d="M292 91Q269 91 256 105T242 140Q242 162 255 176T292 190Q314 190 327 176T341 140Q341 120 328 106T292 91ZM292 485Q269 485 256 499T242 534Q242 556 255 570T292 584Q314 584 327 570T341
534Q341 514 328 500T292 485ZM64 313V362H520V313H64Z" />
<glyph unicode="&#xf8;" glyph-name="oslash" horiz-adv-x="579" d="M103 260Q103 197 122 152T175 80L358 465Q326 477 289 477Q249 477 215 464T156 423T117 355T103 260ZM289 43Q329 43 363 57T423 98T462 165T477 260Q477 324 458 369T403 441L219 55Q252
43 289 43ZM289 -10Q242 -10 196 6L155 -80H99L151 29Q101 62 72 120T43 260Q43 324 61 374T113 458T191 511T289 529Q340 529 381 513L422 599H479L427 490Q478 458 507 400T537 260Q537 196 518 146T466 61T388 8T289 -10Z" />
<glyph unicode="&#xf9;" glyph-name="ugrave" horiz-adv-x="570" d="M429 107Q419 83 403 62T364 25T311 0T242 -10Q165 -10 121 33T76 161V519H135V161Q135 96 169 70T256 43Q291 43 318 52T366 78T402 117T430 167V519H489V0H436L431 107H429V107ZM271 593L157
746H236L323 593H271Z" />
<glyph unicode="&#xfa;" glyph-name="uacute" horiz-adv-x="570" d="M429 107Q419 83 403 62T364 25T311 0T242 -10Q165 -10 121 33T76 161V519H135V161Q135 96 169 70T256 43Q291 43 318 52T366 78T402 117T430 167V519H489V0H436L431 107H429V107ZM341 746H420L306
593H253L341 746Z" />
<glyph unicode="&#xfb;" glyph-name="ucircumflex" horiz-adv-x="570" d="M429 107Q419 83 403 62T364 25T311 0T242 -10Q165 -10 121 33T76 161V519H135V161Q135 96 169 70T256 43Q291 43 318 52T366 78T402 117T430 167V519H489V0H436L431 107H429V107ZM286
691L193 593H140L250 736H320L431 593H378L286 691Z" />
<glyph unicode="&#xfc;" glyph-name="udieresis" horiz-adv-x="570" d="M429 107Q419 83 403 62T364 25T311 0T242 -10Q165 -10 121 33T76 161V519H135V161Q135 96 169 70T256 43Q291 43 318 52T366 78T402 117T430 167V519H489V0H436L431 107H429V107ZM384 619Q364
619 353 631T342 661Q342 678 353 691T384 704Q404 704 415 691T426 661Q426 644 415 632T384 619ZM183 619Q163 619 152 631T141 661Q141 678 152 691T183 704Q203 704 214 691T226 661Q226 644 215 632T183 619Z" />
<glyph unicode="&#xfd;" glyph-name="yacute" horiz-adv-x="504" d="M102 -187Q73 -187 56 -180L63 -129Q69 -131 78 -132T101 -134Q142 -134 168 -106T220 -17L19 519H83L252 59L426 519H484L291 7Q273 -40 255 -76T214 -137T165 -174T102 -187ZM320 746H399L285
593H232L320 746Z" />
<glyph unicode="&#xfe;" glyph-name="thorn" horiz-adv-x="613" d="M326 43Q366 43 399 57T457 98T496 166T510 260Q510 313 496 353T458 421T400 463T326 477Q286 477 252 463T192 422T153 354T139 260Q139 207 153 167T192 99T251 57T326 43ZM332 -10Q265 -10
216 22T140 114V-177H81V716H140L141 410Q167 467 215 498T332 529Q381 529 424 512T500 461T551 377T570 260Q570 194 551 144T500 59T425 8T332 -10Z" />
<glyph unicode="&#xff;" glyph-name="ydieresis" horiz-adv-x="504" d="M102 -187Q73 -187 56 -180L63 -129Q69 -131 78 -132T101 -134Q142 -134 168 -106T220 -17L19 519H83L252 59L426 519H484L291 7Q273 -40 255 -76T214 -137T165 -174T102 -187ZM361 619Q341
619 330 631T319 661Q319 678 330 691T361 704Q381 704 392 691T403 661Q403 644 392 632T361 619ZM160 619Q140 619 129 631T118 661Q118 678 129 691T160 704Q180 704 191 691T203 661Q203 644 192 632T160 619Z" />
<glyph unicode="&#x100;" glyph-name="Amacron" horiz-adv-x="641" d="M316 665L180 278H453L316 665ZM473 222H160L82 0H23L275 716H365L618 0H552L473 222ZM181 867H459V818H181V867Z" />
<glyph unicode="&#x101;" glyph-name="amacron" horiz-adv-x="525" d="M220 43Q254 43 281 53T330 80T366 116T390 152V260H291Q191 260 148 231T104 147Q104 97 135 70T220 43ZM399 0Q396 15 394 40T392 94Q381 76 366 58T328 24T276 0T210 -10Q134 -10 90 31T45
145Q45 227 106 268T286 309H390V354Q390 423 353 450T251 477Q197 477 155 463T87 432L71 481Q97 499 144 514T254 529Q342 529 395 489T449 361V94Q449 68 450 42T454 0H399ZM123 677H385V627H123V677Z" />
<glyph unicode="&#x102;" glyph-name="Abreve" horiz-adv-x="641" d="M316 665L180 278H453L316 665ZM473 222H160L82 0H23L275 716H365L618 0H552L473 222ZM318 773Q282 773 256 784T211 815T184 859T174 912H228Q230 869 253 846T318 823Q357 823 380 846T407
912H461Q459 884 450 859T424 815T380 785T318 773Z" />
<glyph unicode="&#x103;" glyph-name="abreve" horiz-adv-x="525" d="M220 43Q254 43 281 53T330 80T366 116T390 152V260H291Q191 260 148 231T104 147Q104 97 135 70T220 43ZM399 0Q396 15 394 40T392 94Q381 76 366 58T328 24T276 0T210 -10Q134 -10 90 31T45
145Q45 227 106 268T286 309H390V354Q390 423 353 450T251 477Q197 477 155 463T87 432L71 481Q97 499 144 514T254 529Q342 529 395 489T449 361V94Q449 68 450 42T454 0H399ZM255 594Q186 594 152 632T115 730H169Q171 687 192 665T255 642Q298 642 318 664T340
730H394Q392 670 358 632T255 594Z" />
<glyph unicode="&#x104;" glyph-name="Aogonek" horiz-adv-x="641" d="M581 -185Q533 -185 507 -163T480 -104Q480 -69 502 -44T553 -3L473 222H160L82 0H23L275 716H365L618 1Q580 -20 559 -44T538 -94Q538 -114 550 -126T587 -138Q611 -138 631 -129L635 -174Q627
-178 613 -181T581 -185ZM316 665L180 278H453L316 665Z" />
<glyph unicode="&#x105;" glyph-name="aogonek" horiz-adv-x="526" d="M423 -185Q375 -185 349 -163T322 -104Q322 -66 346 -40T399 0Q396 14 394 38T392 94Q381 76 366 58T328 24T276 0T210 -10Q134 -10 90 31T45 145Q45 227 106 268T286 309H390V354Q390 477
253 477Q199 477 157 461T88 428L72 478Q96 495 144 512T256 529Q346 529 397 489T449 366V94Q449 68 450 42T454 0Q421 -19 401 -43T380 -94Q380 -114 392 -126T430 -138Q453 -138 474 -129L483 -172Q474 -177 459 -181T423 -185ZM220 43Q254 43 281 53T330 80T366
116T390 152V260H291Q191 260 148 231T104 147Q104 97 135 70T220 43Z" />
<glyph unicode="&#x106;" glyph-name="Cacute" horiz-adv-x="662" d="M394 -10Q317 -10 254 15T145 88T76 204T51 358Q51 445 74 513T142 628T250 701T392 726Q468 726 521 708T607 664L594 602Q557 632 506 650T392 669Q261 669 190 589T118 358Q118 207 192
127T398 47Q458 47 504 64T589 111L607 57Q577 31 524 11T394 -10ZM423 908H505L395 778H338L423 908Z" />
<glyph unicode="&#x107;" glyph-name="cacute" horiz-adv-x="500" d="M301 -10Q245 -10 198 8T116 60T62 145T43 259Q43 322 62 372T115 457T198 510T303 529Q347 529 386 520T455 492L440 440Q414 455 379 466T303 477Q211 477 157 421T103 259Q103 208 117 168T158
100T220 58T301 43Q343 43 376 53T438 81L453 31Q427 12 390 1T301 -10ZM343 746H422L308 593H255L343 746Z" />
<glyph unicode="&#x108;" glyph-name="Ccircumflex" horiz-adv-x="662" d="M394 -10Q317 -10 254 15T145 88T76 204T51 358Q51 445 74 513T142 628T250 701T392 726Q468 726 521 708T607 664L594 602Q557 632 506 650T392 669Q261 669 190 589T118 358Q118 207
192 127T398 47Q458 47 504 64T589 111L607 57Q577 31 524 11T394 -10ZM376 865L280 771H228L341 909H411L525 771H472L376 865Z" />
<glyph unicode="&#x109;" glyph-name="ccircumflex" horiz-adv-x="500" d="M301 -10Q245 -10 198 8T116 60T62 145T43 259Q43 322 62 372T115 457T198 510T303 529Q347 529 386 520T455 492L440 440Q414 455 379 466T303 477Q211 477 157 421T103 259Q103 208
117 168T158 100T220 58T301 43Q343 43 376 53T438 81L453 31Q427 12 390 1T301 -10ZM287 691L194 593H141L251 736H321L432 593H379L287 691Z" />
<glyph unicode="&#x10a;" glyph-name="Cdotaccent" horiz-adv-x="662" d="M394 -10Q317 -10 254 15T145 88T76 204T51 358Q51 445 74 513T142 628T250 701T392 726Q468 726 521 708T607 664L594 602Q557 632 506 650T392 669Q261 669 190 589T118 358Q118 207
192 127T398 47Q458 47 504 64T589 111L607 57Q577 31 524 11T394 -10ZM372 800Q352 800 341 812T329 842Q329 859 340 872T372 885Q392 885 403 872T415 842Q415 825 404 813T372 800Z" />
<glyph unicode="&#x10b;" glyph-name="cdotaccent" horiz-adv-x="500" d="M301 -10Q245 -10 198 8T116 60T62 145T43 259Q43 322 62 372T115 457T198 510T303 529Q347 529 386 520T455 492L440 440Q414 455 379 466T303 477Q211 477 157 421T103 259Q103 208 117
168T158 100T220 58T301 43Q343 43 376 53T438 81L453 31Q427 12 390 1T301 -10ZM287 619Q267 619 256 631T244 661Q244 678 255 691T287 704Q307 704 318 691T330 661Q330 644 319 632T287 619Z" />
<glyph unicode="&#x10c;" glyph-name="Ccaron" horiz-adv-x="662" d="M394 -10Q317 -10 254 15T145 88T76 204T51 358Q51 445 74 513T142 628T250 701T392 726Q468 726 521 708T607 664L594 602Q557 632 506 650T392 669Q261 669 190 589T118 358Q118 207 192
127T398 47Q458 47 504 64T589 111L607 57Q577 31 524 11T394 -10ZM340 771L227 909H279L375 815L471 909H524L410 771H340Z" />
<glyph unicode="&#x10d;" glyph-name="ccaron" horiz-adv-x="500" d="M301 -10Q245 -10 198 8T116 60T62 145T43 259Q43 322 62 372T115 457T198 510T303 529Q347 529 386 520T455 492L440 440Q414 455 379 466T303 477Q211 477 157 421T103 259Q103 208 117 168T158
100T220 58T301 43Q343 43 376 53T438 81L453 31Q427 12 390 1T301 -10ZM141 736H194L287 638L379 736H432L321 593H251L141 736Z" />
<glyph unicode="&#x10e;" glyph-name="Dcaron" horiz-adv-x="713" d="M156 659V57H319Q378 57 428 76T515 135T573 235T594 376Q594 457 574 511T517 598T433 645T330 659H156ZM92 716H329Q398 716 458 699T564 642T635 538T661 379Q661 285 635 214T563 96T454
24T318 0H92V716ZM291 771L178 909H230L326 815L422 909H475L361 771H291Z" />
<glyph unicode="&#x10f;" glyph-name="dcaron" horiz-adv-x="613" d="M289 43Q329 43 363 57T422 98T461 166T475 260Q475 314 461 354T422 422T363 463T289 477Q249 477 215 463T157 422T118 354T104 260Q104 207 118 167T156 99T215 57T289 43ZM476 118Q450
58 402 24T282 -10Q233 -10 190 7T114 59T63 143T44 260Q44 326 63 376T114 460T189 511T283 529Q349 529 398 499T474 412V716H533V0H481L476 118ZM585 564L606 716H673L628 564H585Z" />
<glyph unicode="&#x110;" glyph-name="Dcroat" horiz-adv-x="748" d="M190 340V57H354Q414 57 464 76T551 135T609 235T630 376Q630 457 610 511T553 598T469 645T365 659H190V392H418V340H190ZM126 340H21V392H126V716H365Q434 716 494 699T600 642T671 538T697
379Q697 285 671 214T599 96T489 24T353 0H126V340Z" />
<glyph unicode="&#x111;" glyph-name="dcroat" horiz-adv-x="618" d="M476 118Q450 58 402 24T282 -10Q233 -10 190 7T114 59T63 143T44 260Q44 326 63 376T114 460T189 511T283 529Q349 529 398 499T474 412V586H293V632H474V716H533V632H611V586H533V0H481L476
118ZM289 43Q329 43 363 57T422 98T461 166T475 260Q475 314 461 354T422 422T363 463T289 477Q249 477 215 463T157 422T118 354T104 260Q104 207 118 167T156 99T215 57T289 43Z" />
<glyph unicode="&#x112;" glyph-name="Emacron" horiz-adv-x="573" d="M92 716H505V659H156V401H458V344H156V57H510V0H92V716ZM162 867H440V818H162V867Z" />
<glyph unicode="&#x113;" glyph-name="emacron" horiz-adv-x="540" d="M284 477Q215 477 166 433T105 300H438Q441 345 430 378T398 434T348 466T284 477ZM484 45Q459 27 416 9T303 -10Q178 -10 111 61T43 260Q43 323 61 373T113 457T190 510T285 529Q337 529
379 512T450 459T490 371T492 249H103Q106 148 159 96T306 43Q363 43 402 60T468 97L484 45ZM151 677H413V627H151V677Z" />
<glyph unicode="&#x114;" glyph-name="Ebreve" horiz-adv-x="573" d="M92 716H505V659H156V401H458V344H156V57H510V0H92V716ZM304 773Q268 773 242 784T197 815T170 859T160 912H214Q216 869 239 846T304 823Q343 823 366 846T393 912H447Q445 884 436 859T410
815T366 785T304 773Z" />
<glyph unicode="&#x115;" glyph-name="ebreve" horiz-adv-x="540" d="M284 477Q215 477 166 433T105 300H438Q441 345 430 378T398 434T348 466T284 477ZM484 45Q459 27 416 9T303 -10Q178 -10 111 61T43 260Q43 323 61 373T113 457T190 510T285 529Q337 529 379
512T450 459T490 371T492 249H103Q106 148 159 96T306 43Q363 43 402 60T468 97L484 45ZM282 594Q213 594 179 632T142 730H196Q198 687 219 665T282 642Q325 642 345 664T367 730H421Q419 670 385 632T282 594Z" />
<glyph unicode="&#x116;" glyph-name="Edotaccent" horiz-adv-x="573" d="M92 716H505V659H156V401H458V344H156V57H510V0H92V716ZM305 800Q285 800 274 812T262 842Q262 859 273 872T305 885Q325 885 336 872T348 842Q348 825 337 813T305 800Z" />
<glyph unicode="&#x117;" glyph-name="edotaccent" horiz-adv-x="540" d="M284 477Q215 477 166 433T105 300H438Q441 345 430 378T398 434T348 466T284 477ZM484 45Q459 27 416 9T303 -10Q178 -10 111 61T43 260Q43 323 61 373T113 457T190 510T285 529Q337 529
379 512T450 459T490 371T492 249H103Q106 148 159 96T306 43Q363 43 402 60T468 97L484 45ZM282 619Q262 619 251 631T239 661Q239 678 250 691T282 704Q302 704 313 691T325 661Q325 644 314 632T282 619Z" />
<glyph unicode="&#x118;" glyph-name="Eogonek" horiz-adv-x="573" d="M92 716H505V659H156V401H458V344H156V57H510V0H92V716ZM434 -185Q386 -185 360 -163T333 -104Q333 -66 357 -40T410 0H469Q434 -20 413 -44T391 -94Q391 -114 403 -126T440 -138Q464 -138
484 -129L494 -172Q484 -177 469 -181T434 -185Z" />
<glyph unicode="&#x119;" glyph-name="eogonek" horiz-adv-x="540" d="M324 -94Q324 -114 336 -126T373 -138Q397 -138 418 -129L427 -172Q418 -177 402 -181T367 -185Q319 -185 293 -163T266 -104Q266 -72 283 -48T327 -9Q322 -10 316 -10T303 -10Q178 -10 111
61T43 260Q43 323 61 373T113 457T190 510T285 529Q337 529 379 512T450 459T490 371T492 249H103Q106 147 158 95T307 43Q364 43 402 60T467 97L484 45Q470 35 453 26T417 7Q372 -15 348 -40T324 -94ZM284 477Q250 477 220 466T165 432T126 376T105 300H437Q441
345 430 378T398 433T347 466T284 477Z" />
<glyph unicode="&#x11a;" glyph-name="Ecaron" horiz-adv-x="573" d="M92 716H505V659H156V401H458V344H156V57H510V0H92V716ZM276 771L163 909H215L311 815L407 909H460L346 771H276Z" />
<glyph unicode="&#x11b;" glyph-name="ecaron" horiz-adv-x="540" d="M284 477Q215 477 166 433T105 300H438Q441 345 430 378T398 434T348 466T284 477ZM484 45Q459 27 416 9T303 -10Q178 -10 111 61T43 260Q43 323 61 373T113 457T190 510T285 529Q337 529 379
512T450 459T490 371T492 249H103Q106 148 159 96T306 43Q363 43 402 60T468 97L484 45ZM136 736H189L282 638L374 736H427L316 593H246L136 736Z" />
<glyph unicode="&#x11c;" glyph-name="Gcircumflex" horiz-adv-x="747" d="M692 279Q692 216 673 163T615 72T521 12T391 -10Q318 -10 256 15T148 88T77 204T51 358Q51 444 75 512T146 627T259 700T410 726Q491 726 549 706T643 660L630 599Q588 631 533 650T409
669Q266 669 192 588T118 358Q118 284 138 226T194 128T281 68T391 47Q450 47 494 64T569 111T614 183T629 275V308H370V365H692V279V279ZM391 865L295 771H243L356 909H426L540 771H487L391 865Z" />
<glyph unicode="&#x11d;" glyph-name="gcircumflex" horiz-adv-x="610" d="M289 74Q328 74 361 87T418 125T456 187T470 275Q470 325 457 362T419 425T361 464T288 477Q249 477 215 464T156 426T117 363T103 275Q103 225 117 188T156 125T215 87T289 74ZM267 -179Q223
-179 191 -174T135 -161T98 -146T79 -135L91 -81Q97 -84 111 -91T147 -106T199 -120T268 -126Q373 -126 421 -84T469 45V139Q443 84 396 53T280 21Q231 21 188 37T113 86T63 165T44 275Q44 337 62 384T113 464T189 512T281 529Q350 529 398 497T473 407V408Q473
447 475 476T480 519H534Q532 505 531 476T529 408V45Q529 -60 465 -119T267 -179ZM285 691L192 593H139L249 736H319L430 593H377L285 691Z" />
<glyph unicode="&#x11e;" glyph-name="Gbreve" horiz-adv-x="747" d="M692 279Q692 216 673 163T615 72T521 12T391 -10Q318 -10 256 15T148 88T77 204T51 358Q51 444 75 512T146 627T259 700T410 726Q491 726 549 706T643 660L630 599Q588 631 533 650T409 669Q266
669 192 588T118 358Q118 284 138 226T194 128T281 68T391 47Q450 47 494 64T569 111T614 183T629 275V308H370V365H692V279V279ZM391 773Q355 773 329 784T284 815T257 859T247 912H301Q303 869 326 846T391 823Q430 823 453 846T480 912H534Q532 884 523 859T497
815T453 785T391 773Z" />
<glyph unicode="&#x11f;" glyph-name="gbreve" horiz-adv-x="610" d="M289 74Q328 74 361 87T418 125T456 187T470 275Q470 325 457 362T419 425T361 464T288 477Q249 477 215 464T156 426T117 363T103 275Q103 225 117 188T156 125T215 87T289 74ZM267 -179Q223
-179 191 -174T135 -161T98 -146T79 -135L91 -81Q97 -84 111 -91T147 -106T199 -120T268 -126Q373 -126 421 -84T469 45V139Q443 84 396 53T280 21Q231 21 188 37T113 86T63 165T44 275Q44 337 62 384T113 464T189 512T281 529Q350 529 398 497T473 407V408Q473
447 475 476T480 519H534Q532 505 531 476T529 408V45Q529 -60 465 -119T267 -179ZM286 594Q217 594 183 632T146 730H200Q202 687 223 665T286 642Q329 642 349 664T371 730H425Q423 670 389 632T286 594Z" />
<glyph unicode="&#x120;" glyph-name="Gdotaccent" horiz-adv-x="747" d="M692 279Q692 216 673 163T615 72T521 12T391 -10Q318 -10 256 15T148 88T77 204T51 358Q51 444 75 512T146 627T259 700T410 726Q491 726 549 706T643 660L630 599Q588 631 533 650T409
669Q266 669 192 588T118 358Q118 284 138 226T194 128T281 68T391 47Q450 47 494 64T569 111T614 183T629 275V308H370V365H692V279V279ZM388 800Q368 800 357 812T345 842Q345 859 356 872T388 885Q408 885 419 872T431 842Q431 825 420 813T388 800Z" />
<glyph unicode="&#x121;" glyph-name="gdotaccent" horiz-adv-x="610" d="M289 74Q328 74 361 87T418 125T456 187T470 275Q470 325 457 362T419 425T361 464T288 477Q249 477 215 464T156 426T117 363T103 275Q103 225 117 188T156 125T215 87T289 74ZM267 -179Q223
-179 191 -174T135 -161T98 -146T79 -135L91 -81Q97 -84 111 -91T147 -106T199 -120T268 -126Q373 -126 421 -84T469 45V139Q443 84 396 53T280 21Q231 21 188 37T113 86T63 165T44 275Q44 337 62 384T113 464T189 512T281 529Q350 529 398 497T473 407V408Q473
447 475 476T480 519H534Q532 505 531 476T529 408V45Q529 -60 465 -119T267 -179ZM286 619Q266 619 255 631T243 661Q243 678 254 691T286 704Q306 704 317 691T329 661Q329 644 318 632T286 619Z" />
<glyph unicode="&#x122;" glyph-name="uni0122" horiz-adv-x="747" d="M692 279Q692 216 673 163T615 72T521 12T391 -10Q318 -10 256 15T148 88T77 204T51 358Q51 444 75 512T146 627T259 700T410 726Q491 726 549 706T643 660L630 599Q588 631 533 650T409 669Q266
669 192 588T118 358Q118 284 138 226T194 128T281 68T391 47Q450 47 494 64T569 111T614 183T629 275V308H370V365H692V279V279ZM330 -213Q345 -196 356 -179T376 -140Q359 -138 351 -127T342 -101Q342 -84 353 -72T383 -60Q402 -60 415 -72T428 -110Q428 -143
411 -168T376 -213H330Z" />
<glyph unicode="&#x123;" glyph-name="uni0123" horiz-adv-x="610" d="M289 74Q328 74 361 87T418 125T456 187T470 275Q470 325 457 362T419 425T361 464T288 477Q249 477 215 464T156 426T117 363T103 275Q103 225 117 188T156 125T215 87T289 74ZM267 -179Q223
-179 191 -174T135 -161T98 -146T79 -135L91 -81Q97 -84 111 -91T147 -106T199 -120T268 -126Q373 -126 421 -84T469 45V139Q443 84 396 53T280 21Q231 21 188 37T113 86T63 165T44 275Q44 337 62 384T113 464T189 512T281 529Q350 529 398 497T473 407V408Q473
447 475 476T480 519H534Q532 505 531 476T529 408V45Q529 -60 465 -119T267 -179ZM286 619Q267 619 254 631T241 669Q241 703 257 728T293 772H339Q309 742 292 700Q310 697 318 686T327 660Q327 643 316 631T286 619Z" />
<glyph unicode="&#x124;" glyph-name="Hcircumflex" horiz-adv-x="730" d="M575 327H156V0H92V716H156V384H575V716H638V0H575V327ZM365 865L269 771H217L330 909H400L514 771H461L365 865Z" />
<glyph unicode="&#x125;" glyph-name="hcircumflex" horiz-adv-x="584" d="M322 477Q284 477 256 467T205 439T168 399T140 350V0H81V716H140V513L139 411H142Q152 434 168 455T208 492T263 519T335 529Q415 529 461 488T508 364V0H448V359Q448 423 414 450T322
477ZM302 865L206 771H154L267 909H337L451 771H398L302 865Z" />
<glyph unicode="&#x126;" glyph-name="Hbar" horiz-adv-x="730" d="M575 327H156V0H92V524H-14V576H92V716H156V576H575V716H638V576H744V524H638V0H575V327ZM575 384V524H156V384H575Z" />
<glyph unicode="&#x127;" glyph-name="hbar" horiz-adv-x="589" d="M327 477Q289 477 261 467T210 439T173 399T145 350V0H86V586H-1V632H86V716H145V632H318V586H145V513L144 411H147Q157 434 173 455T213 492T268 519T340 529Q420 529 466 488T513 364V0H453V359Q453
423 419 450T327 477Z" />
<glyph unicode="&#x128;" glyph-name="Itilde" horiz-adv-x="247" d="M156 716V0H92V716H156ZM220 790Q218 813 222 834T237 872T265 898T307 908Q330 908 349 898T386 877T418 855T449 845Q469 845 479 860T491 911H536Q538 888 534 867T519 829T491 804T449
794Q426 794 407 803T370 825T338 846T307 856Q287 856 277 841T266 790H220V790Z" />
<glyph unicode="&#x129;" glyph-name="itilde" horiz-adv-x="221" d="M140 519V0H81V519H140ZM211 602Q209 624 213 644T227 680T255 705T295 715Q317 715 336 706T371 686T403 665T432 656Q470 656 472 718H517Q518 697 514 677T500 640T473 615T433 605Q411
605 392 614T357 634T325 654T296 663Q256 663 256 602H211V602Z" />
<glyph unicode="&#x12a;" glyph-name="Imacron" horiz-adv-x="247" d="M156 716V0H92V716H156ZM240 867H518V818H240V867Z" />
<glyph unicode="&#x12b;" glyph-name="imacron" horiz-adv-x="221" d="M5 677H216V627H5V677ZM140 519V0H81V519H140Z" />
<glyph unicode="&#x12c;" glyph-name="Ibreve" horiz-adv-x="247" d="M156 716V0H92V716H156ZM381 773Q345 773 319 784T274 815T247 859T237 912H291Q293 869 316 846T381 823Q420 823 443 846T470 912H524Q522 884 513 859T487 815T443 785T381 773Z" />
<glyph unicode="&#x12d;" glyph-name="ibreve" horiz-adv-x="221" d="M140 519V0H81V519H140ZM367 594Q298 594 264 632T227 730H281Q283 687 304 665T367 642Q410 642 430 664T452 730H506Q504 670 470 632T367 594Z" />
<glyph unicode="&#x12e;" glyph-name="Iogonek" horiz-adv-x="262" d="M75 -85Q75 -103 87 -116T127 -129Q141 -129 155 -126T183 -118L192 -174Q183 -180 165 -185T124 -190Q73 -190 44 -166T15 -99Q15 -66 30 -45T66 -9H101V716H163V2Q147 -9 132 -19T104 -39T83
-61T75 -85Z" />
<glyph unicode="&#x12f;" glyph-name="iogonek" horiz-adv-x="227" d="M116 609Q96 609 85 620T74 649Q74 666 85 679T116 692Q136 692 144 679T153 649Q153 632 145 621T116 609ZM108 -190Q57 -190 27 -166T-3 -99Q-3 -62 14 -41T54 -6H87V519H142V0Q127 -8 112
-17T86 -37T67 -60T59 -85Q59 -103 71 -116T110 -129Q126 -129 139 -126T167 -118L176 -174Q166 -180 149 -185T108 -190Z" />
<glyph unicode="&#x130;" glyph-name="Idotaccent" horiz-adv-x="247" d="M156 716V0H92V716H156ZM377 800Q357 800 346 812T334 842Q334 859 345 872T377 885Q397 885 408 872T420 842Q420 825 409 813T377 800Z" />
<glyph unicode="&#x131;" glyph-name="dotlessi" horiz-adv-x="221" d="M140 519V0H81V519H140Z" />
<glyph unicode="&#x132;" glyph-name="IJ" horiz-adv-x="583" d="M156 716V0H92V716H156ZM495 716V136Q495 106 487 79T460 33T414 2T345 -10Q290 -10 250 9L255 64Q272 56 292 52T334 47Q389 47 410 73T432 150V716H495Z" />
<glyph unicode="&#x133;" glyph-name="ij" horiz-adv-x="449" d="M111 619Q91 619 80 632T68 662Q68 679 79 692T111 705Q131 705 142 692T153 662Q153 645 142 632T111 619ZM140 519V0H81V519H140ZM341 619Q321 619 310 632T298 662Q298 679 309 692T341 705Q361
705 372 692T384 662Q384 645 373 632T341 619ZM214 -134Q268 -130 290 -104T312 -32V519H370V-29Q370 -95 336 -138T224 -187L214 -134Z" />
<glyph unicode="&#x134;" glyph-name="Jcircumflex" horiz-adv-x="368" d="M280 716V136Q280 106 272 79T245 33T199 2T130 -10Q75 -10 35 9L47 67Q54 62 75 55T124 47Q176 47 196 73T217 150V716H280ZM248 865L152 771H100L213 909H283L397 771H344L248 865Z" />
<glyph unicode="&#x135;" glyph-name="jcircumflex" horiz-adv-x="227" d="M-8 -134Q46 -130 68 -104T90 -32V519H148V-29Q148 -95 114 -138T2 -187L-8 -134ZM372 691L279 593H226L336 736H406L517 593H464L372 691Z" />
<glyph unicode="&#x136;" glyph-name="uni0136" horiz-adv-x="619" d="M237 331H156V0H92V716H156V388H236L510 716H582L289 364L595 0H517L237 331ZM267 -213Q282 -196 293 -179T313 -140Q296 -138 288 -127T279 -101Q279 -84 290 -72T320 -60Q339 -60 352 -72T365
-110Q365 -143 348 -168T313 -213H267Z" />
<glyph unicode="&#x137;" glyph-name="uni0137" horiz-adv-x="497" d="M203 238H141V0H81V716H141V289H207L403 519H471L252 265L468 0H396L203 238ZM199 -213Q214 -196 225 -179T245 -140Q228 -138 220 -127T211 -101Q211 -84 222 -72T252 -60Q271 -60 284 -72T297
-110Q297 -143 280 -168T245 -213H199Z" />
<glyph unicode="&#x139;" glyph-name="Lacute" horiz-adv-x="561" d="M92 716H156V57H507V0H92V716ZM434 908H516L406 778H349L434 908Z" />
<glyph unicode="&#x13a;" glyph-name="lacute" horiz-adv-x="221" d="M140 716V0H81V716H140ZM417 908H499L389 778H332L417 908Z" />
<glyph unicode="&#x13b;" glyph-name="uni013B" horiz-adv-x="561" d="M92 716H156V57H507V0H92V716ZM254 -213Q269 -196 280 -179T300 -140Q283 -138 275 -127T266 -101Q266 -84 277 -72T307 -60Q326 -60 339 -72T352 -110Q352 -143 335 -168T300 -213H254Z" />
<glyph unicode="&#x13c;" glyph-name="uni013C" horiz-adv-x="221" d="M140 716V0H81V716H140ZM50 -213Q65 -196 76 -179T96 -140Q79 -138 71 -127T62 -101Q62 -84 73 -72T103 -60Q122 -60 135 -72T148 -110Q148 -143 131 -168T96 -213H50Z" />
<glyph unicode="&#x13d;" glyph-name="Lcaron" horiz-adv-x="561" d="M92 716H156V57H507V0H92V716ZM247 564L268 716H335L290 564H247Z" />
<glyph unicode="&#x13e;" glyph-name="lcaron" horiz-adv-x="221" d="M448 564L469 716H536L491 564H448ZM140 716V0H81V716H140Z" />
<glyph unicode="&#x13f;" glyph-name="Ldot" horiz-adv-x="561" d="M92 716H156V57H507V0H92V716ZM446 340Q423 340 410 354T396 389Q396 411 409 425T446 439Q468 439 481 425T495 389Q495 369 482 355T446 340Z" />
<glyph unicode="&#x140;" glyph-name="ldot" horiz-adv-x="340" d="M140 716V0H81V716H140ZM283 304Q260 304 247 318T233 353Q233 375 246 389T283 403Q305 403 318 389T332 353Q332 333 319 319T283 304Z" />
<glyph unicode="&#x141;" glyph-name="Lslash" horiz-adv-x="582" d="M22 267L114 318V716H178V353L417 487V425L178 291V57H529V0H114V256L22 205V267Z" />
<glyph unicode="&#x142;" glyph-name="lslash" horiz-adv-x="282" d="M17 297L112 374V716H171V422L268 502V444L171 364V0H112V316L17 239V297Z" />
<glyph unicode="&#x143;" glyph-name="Nacute" horiz-adv-x="743" d="M151 645V0H92V716H178L592 67V716H651V0H563L151 645ZM438 908H520L410 778H353L438 908Z" />
<glyph unicode="&#x144;" glyph-name="nacute" horiz-adv-x="584" d="M322 477Q284 477 256 467T205 439T168 399T140 350V0H81V519H137L139 410H141Q151 433 167 454T208 492T263 519T335 529Q415 529 461 488T508 364V0H449V359Q449 423 415 450T322 477ZM351
746H430L316 593H263L351 746Z" />
<glyph unicode="&#x145;" glyph-name="uni0145" horiz-adv-x="743" d="M151 645V0H92V716H178L592 67V716H651V0H563L151 645ZM312 -213Q327 -196 338 -179T358 -140Q341 -138 333 -127T324 -101Q324 -84 335 -72T365 -60Q384 -60 397 -72T410 -110Q410 -143 393
-168T358 -213H312Z" />
<glyph unicode="&#x146;" glyph-name="uni0146" horiz-adv-x="584" d="M322 477Q284 477 256 467T205 439T168 399T140 350V0H81V519H137L139 410H141Q151 433 167 454T208 492T263 519T335 529Q415 529 461 488T508 364V0H449V359Q449 423 415 450T322 477ZM237
-213Q252 -196 263 -179T283 -140Q266 -138 258 -127T249 -101Q249 -84 260 -72T290 -60Q309 -60 322 -72T335 -110Q335 -143 318 -168T283 -213H237Z" />
<glyph unicode="&#x147;" glyph-name="Ncaron" horiz-adv-x="743" d="M151 645V0H92V716H178L592 67V716H651V0H563L151 645ZM353 771L240 909H292L388 815L484 909H537L423 771H353Z" />
<glyph unicode="&#x148;" glyph-name="ncaron" horiz-adv-x="584" d="M322 477Q284 477 256 467T205 439T168 399T140 350V0H81V519H137L139 410H141Q151 433 167 454T208 492T263 519T335 529Q415 529 461 488T508 364V0H449V359Q449 423 415 450T322 477ZM151
736H204L297 638L389 736H442L331 593H261L151 736Z" />
<glyph unicode="&#x14a;" glyph-name="Eng" horiz-adv-x="743" d="M501 -200Q474 -200 450 -195T406 -181L422 -129Q438 -136 458 -140T501 -145Q551 -145 571 -118T592 -40V0H563L151 645V0H92V716H178L592 67V716H651V-44Q651 -78 643 -106T616 -156T570 -188T501
-200Z" />
<glyph unicode="&#x14b;" glyph-name="eng" horiz-adv-x="575" d="M508 -29Q508 -95 474 -138T362 -187L352 -134Q405 -130 427 -104T449 -32V359Q449 423 415 450T322 477Q284 477 256 467T205 439T168 399T140 350V0H81V519H137L139 410H141Q151 433 167 454T208
492T263 519T335 529Q415 529 461 488T508 364V-29V-29Z" />
<glyph unicode="&#x14c;" glyph-name="Omacron" horiz-adv-x="776" d="M388 -10Q316 -10 255 15T148 87T77 203T51 359Q51 448 76 516T147 631T254 702T388 726Q461 726 522 702T629 632T699 517T725 359Q725 272 700 204T629 88T523 15T388 -10ZM388 47Q447 47
496 66T582 123T638 220T659 358Q659 437 639 495T582 592T497 650T388 669Q329 669 280 650T194 593T138 496T118 358Q118 279 138 221T194 124T279 66T388 47ZM251 867H529V818H251V867Z" />
<glyph unicode="&#x14d;" glyph-name="omacron" horiz-adv-x="579" d="M289 -10Q236 -10 191 8T113 60T62 145T43 260Q43 324 61 374T113 458T191 511T289 529Q342 529 387 511T466 459T518 374T537 260Q537 196 518 146T466 61T388 8T289 -10ZM289 43Q329 43
363 57T423 98T462 165T477 260Q477 314 463 354T423 422T364 463T289 477Q249 477 215 464T156 423T117 355T103 260Q103 206 117 166T156 98T215 57T289 43ZM158 677H420V627H158V677Z" />
<glyph unicode="&#x14e;" glyph-name="Obreve" horiz-adv-x="776" d="M388 -10Q316 -10 255 15T148 87T77 203T51 359Q51 448 76 516T147 631T254 702T388 726Q461 726 522 702T629 632T699 517T725 359Q725 272 700 204T629 88T523 15T388 -10ZM388 47Q447 47
496 66T582 123T638 220T659 358Q659 437 639 495T582 592T497 650T388 669Q329 669 280 650T194 593T138 496T118 358Q118 279 138 221T194 124T279 66T388 47ZM389 773Q353 773 327 784T282 815T255 859T245 912H299Q301 869 324 846T389 823Q428 823 451 846T478
912H532Q530 884 521 859T495 815T451 785T389 773Z" />
<glyph unicode="&#x14f;" glyph-name="obreve" horiz-adv-x="579" d="M289 -10Q236 -10 191 8T113 60T62 145T43 260Q43 324 61 374T113 458T191 511T289 529Q342 529 387 511T466 459T518 374T537 260Q537 196 518 146T466 61T388 8T289 -10ZM289 43Q329 43 363
57T423 98T462 165T477 260Q477 314 463 354T423 422T364 463T289 477Q249 477 215 464T156 423T117 355T103 260Q103 206 117 166T156 98T215 57T289 43ZM289 594Q220 594 186 632T149 730H203Q205 687 226 665T289 642Q332 642 352 664T374 730H428Q426 670 392
632T289 594Z" />
<glyph unicode="&#x150;" glyph-name="Ohungarumlaut" horiz-adv-x="776" d="M388 -10Q316 -10 255 15T148 87T77 203T51 359Q51 448 76 516T147 631T254 702T388 726Q461 726 522 702T629 632T699 517T725 359Q725 272 700 204T629 88T523 15T388 -10ZM388 47Q447
47 496 66T582 123T638 220T659 358Q659 437 639 495T582 592T497 650T388 669Q329 669 280 650T194 593T138 496T118 358Q118 279 138 221T194 124T279 66T388 47ZM443 778L507 909H583L497 778H443ZM274 778L339 909H414L328 778H274Z" />
<glyph unicode="&#x151;" glyph-name="ohungarumlaut" horiz-adv-x="579" d="M289 -10Q236 -10 191 8T113 60T62 145T43 260Q43 324 61 374T113 458T191 511T289 529Q342 529 387 511T466 459T518 374T537 260Q537 196 518 146T466 61T388 8T289 -10ZM289 43Q329
43 363 57T423 98T462 165T477 260Q477 314 463 354T423 422T364 463T289 477Q249 477 215 464T156 423T117 355T103 260Q103 206 117 166T156 98T215 57T289 43ZM340 593L400 746H469L389 593H340ZM189 593L248 746H317L238 593H189Z" />
<glyph unicode="&#x152;" glyph-name="OE" horiz-adv-x="982" d="M500 57V659H403Q343 659 291 645T201 596T140 505T118 364Q118 286 140 229T200 133T292 76T409 57H500ZM400 0Q325 0 261 23T151 91T78 205T51 364Q51 463 78 530T153 638T265 698T404 716H914V659H563V401H866V344H563V57H919V0H400Z"
/>
<glyph unicode="&#x153;" glyph-name="oe" horiz-adv-x="978" d="M718 477Q649 477 600 433T539 300H872Q875 345 864 378T832 434T782 466T718 477ZM289 43Q329 43 363 57T423 98T462 165T477 260Q477 314 463 354T423 422T364 463T289 477Q249 477 215 464T156
423T117 355T103 260Q103 206 117 166T156 98T215 57T289 43ZM917 45Q892 27 849 9T738 -10Q649 -10 591 26T506 131Q477 62 421 26T289 -10Q236 -10 191 8T113 60T62 145T43 260Q43 324 61 374T113 458T191 511T289 529Q365 529 421 493T507 387Q534 456 590 492T719
529Q771 529 813 512T884 459T924 371T926 249H537Q540 148 592 96T741 43Q801 43 842 60T912 98L917 45Z" />
<glyph unicode="&#x154;" glyph-name="Racute" horiz-adv-x="617" d="M156 0H92V716H307Q423 716 485 669T548 521Q548 474 536 439T500 378T445 338T372 315L573 0H503L306 309H156V0ZM156 660V366H294Q336 366 371 374T431 400T469 448T483 521Q483 594 439
627T307 660H156ZM367 908H449L339 778H282L367 908Z" />
<glyph unicode="&#x155;" glyph-name="racute" horiz-adv-x="353" d="M320 466Q258 461 211 430T140 334V0H81V519H134L139 395H141Q150 419 165 441T203 482T254 512T320 529V466V466ZM261 746H340L226 593H173L261 746Z" />
<glyph unicode="&#x156;" glyph-name="uni0156" horiz-adv-x="617" d="M156 0H92V716H307Q423 716 485 669T548 521Q548 474 536 439T500 378T445 338T372 315L573 0H503L306 309H156V0ZM156 660V366H294Q336 366 371 374T431 400T469 448T483 521Q483 594 439
627T307 660H156ZM271 -213Q286 -196 297 -179T317 -140Q300 -138 292 -127T283 -101Q283 -84 294 -72T324 -60Q343 -60 356 -72T369 -110Q369 -143 352 -168T317 -213H271Z" />
<glyph unicode="&#x157;" glyph-name="uni0157" horiz-adv-x="353" d="M320 466Q258 461 211 430T140 334V0H81V519H134L139 395H141Q150 419 165 441T203 482T254 512T320 529V466V466ZM307 -213Q322 -196 333 -179T353 -140Q336 -138 328 -127T319 -101Q319
-84 330 -72T360 -60Q379 -60 392 -72T405 -110Q405 -143 388 -168T353 -213H307Z" />
<glyph unicode="&#x158;" glyph-name="Rcaron" horiz-adv-x="617" d="M156 0H92V716H307Q423 716 485 669T548 521Q548 474 536 439T500 378T445 338T372 315L573 0H503L306 309H156V0ZM156 660V366H294Q336 366 371 374T431 400T469 448T483 521Q483 594 439
627T307 660H156ZM281 771L168 909H220L316 815L412 909H465L351 771H281Z" />
<glyph unicode="&#x159;" glyph-name="rcaron" horiz-adv-x="353" d="M320 466Q258 461 211 430T140 334V0H81V519H134L139 395H141Q150 419 165 441T203 482T254 512T320 529V466V466ZM312 736H365L458 638L550 736H603L492 593H422L312 736Z" />
<glyph unicode="&#x15a;" glyph-name="Sacute" horiz-adv-x="577" d="M272 -10Q231 -10 196 -4T132 11T80 31T44 54L58 114Q73 103 95 91T144 69T204 53T272 47Q311 47 345 55T406 80T447 123T462 186Q462 222 449 246T412 287T354 315T276 338Q236 348 196 362T125
398T74 455T54 539Q54 632 119 679T299 726Q336 726 365 722T416 712T456 699T487 685L476 625Q446 643 402 656T299 669Q211 669 164 638T117 541Q117 508 131 485T168 446T223 419T288 399Q327 388 369 376T446 341T504 282T527 189Q527 134 506 96T448 35T366
1T272 -10ZM342 908H424L314 778H257L342 908Z" />
<glyph unicode="&#x15b;" glyph-name="sacute" horiz-adv-x="476" d="M234 -10Q160 -10 114 6T44 39L58 92Q82 74 127 57T235 40Q262 40 287 45T330 63T360 94T372 140Q372 167 362 184T333 212T288 229T229 243Q193 250 161 260T105 286T67 326T53 387Q53 457
105 493T244 529Q302 529 341 519T406 494L391 443Q365 457 331 468T244 479Q186 479 149 459T111 388Q111 366 120 352T146 327T188 310T242 297Q278 289 312 280T373 255T415 211T431 141Q431 99 415 71T371 24T309 -2T234 -10ZM296 746H375L261 593H208L296
746Z" />
<glyph unicode="&#x15c;" glyph-name="Scircumflex" horiz-adv-x="577" d="M272 -10Q231 -10 196 -4T132 11T80 31T44 54L58 114Q73 103 95 91T144 69T204 53T272 47Q311 47 345 55T406 80T447 123T462 186Q462 222 449 246T412 287T354 315T276 338Q236 348 196
362T125 398T74 455T54 539Q54 632 119 679T299 726Q336 726 365 722T416 712T456 699T487 685L476 625Q446 643 402 656T299 669Q211 669 164 638T117 541Q117 508 131 485T168 446T223 419T288 399Q327 388 369 376T446 341T504 282T527 189Q527 134 506 96T448
35T366 1T272 -10ZM293 865L197 771H145L258 909H328L442 771H389L293 865Z" />
<glyph unicode="&#x15d;" glyph-name="scircumflex" horiz-adv-x="476" d="M234 -10Q160 -10 114 6T44 39L58 92Q82 74 127 57T235 40Q262 40 287 45T330 63T360 94T372 140Q372 167 362 184T333 212T288 229T229 243Q193 250 161 260T105 286T67 326T53 387Q53
457 105 493T244 529Q302 529 341 519T406 494L391 443Q365 457 331 468T244 479Q186 479 149 459T111 388Q111 366 120 352T146 327T188 310T242 297Q278 289 312 280T373 255T415 211T431 141Q431 99 415 71T371 24T309 -2T234 -10ZM240 691L147 593H94L204 736H274L385
593H332L240 691Z" />
<glyph unicode="&#x15e;" glyph-name="uni015E" horiz-adv-x="577" d="M196 -4Q161 2 132 11T80 31T44 54L58 114Q73 103 95 91T144 69T204 53T272 47Q311 47 345 55T406 80T447 123T462 186Q462 222 449 246T412 287T354 315T276 338Q236 348 196 362T125 398T74
455T54 539Q54 632 119 679T299 726Q336 726 365 722T416 712T456 699T487 685L476 625Q446 643 402 656T299 669Q211 669 164 638T117 541Q117 508 131 485T168 446T223 419T288 399Q327 388 369 376T446 341T504 282T527 189Q527 134 506 96T448 35T366 0Q339
-5 312 -8L260 -171H191L256 -10Q224 -9 196 -4Z" />
<glyph unicode="&#x15f;" glyph-name="uni015F" horiz-adv-x="476" d="M114 6Q68 23 44 39L58 92Q82 74 127 57T235 40Q262 40 287 45T330 63T360 94T372 140Q372 167 362 184T333 212T288 229T229 243Q193 250 161 260T105 286T67 326T53 387Q53 457 105 493T244
529Q302 529 341 519T406 494L391 443Q365 457 331 468T244 479Q186 479 149 459T111 388Q111 366 120 352T146 327T188 310T242 297Q278 289 312 280T373 255T415 211T431 141Q431 99 415 71T371 24T308 -2Q286 -7 262 -9L210 -172H141L207 -9Q151 -7 114 6Z"
/>
<glyph unicode="&#x160;" glyph-name="Scaron" horiz-adv-x="577" d="M272 -10Q231 -10 196 -4T132 11T80 31T44 54L58 114Q73 103 95 91T144 69T204 53T272 47Q311 47 345 55T406 80T447 123T462 186Q462 222 449 246T412 287T354 315T276 338Q236 348 196 362T125
398T74 455T54 539Q54 632 119 679T299 726Q336 726 365 722T416 712T456 699T487 685L476 625Q446 643 402 656T299 669Q211 669 164 638T117 541Q117 508 131 485T168 446T223 419T288 399Q327 388 369 376T446 341T504 282T527 189Q527 134 506 96T448 35T366
1T272 -10ZM257 771L144 909H196L292 815L388 909H441L327 771H257Z" />
<glyph unicode="&#x161;" glyph-name="scaron" horiz-adv-x="476" d="M234 -10Q160 -10 114 6T44 39L58 92Q82 74 127 57T235 40Q262 40 287 45T330 63T360 94T372 140Q372 167 362 184T333 212T288 229T229 243Q193 250 161 260T105 286T67 326T53 387Q53 457
105 493T244 529Q302 529 341 519T406 494L391 443Q365 457 331 468T244 479Q186 479 149 459T111 388Q111 366 120 352T146 327T188 310T242 297Q278 289 312 280T373 255T415 211T431 141Q431 99 415 71T371 24T309 -2T234 -10ZM94 736H147L240 638L332 736H385L274
593H204L94 736Z" />
<glyph unicode="&#x162;" glyph-name="Tcommaaccent" horiz-adv-x="567" d="M313 659V0H249V659H24V716H538V659H313ZM231 -213Q246 -196 257 -179T277 -140Q260 -138 252 -127T243 -101Q243 -84 254 -72T284 -60Q303 -60 316 -72T329 -110Q329 -143 312 -168T277
-213H231Z" />
<glyph unicode="&#x163;" glyph-name="tcommaaccent" horiz-adv-x="357" d="M320 8Q306 0 283 -5T234 -10Q199 -10 174 0T133 26T110 65T102 114V468H34V519H102V628H162V519H312V468H162V121Q162 85 180 64T240 43Q260 43 277 47T309 59L320 8V8ZM400 -213Q415
-196 426 -179T446 -140Q429 -138 421 -127T412 -101Q412 -84 423 -72T453 -60Q472 -60 485 -72T498 -110Q498 -143 481 -168T446 -213H400Z" />
<glyph unicode="&#x164;" glyph-name="Tcaron" horiz-adv-x="567" d="M313 659V0H249V659H24V716H538V659H313ZM251 771L138 909H190L286 815L382 909H435L321 771H251Z" />
<glyph unicode="&#x165;" glyph-name="tcaron" horiz-adv-x="357" d="M320 8Q306 0 283 -5T234 -10Q199 -10 174 0T133 26T110 65T102 114V468H34V519H102V628H162V519H312V468H162V121Q162 85 180 64T240 43Q260 43 277 47T309 59L320 8V8ZM234 581L255 733H322L277
581H234Z" />
<glyph unicode="&#x166;" glyph-name="Tbar" horiz-adv-x="562" d="M63 418H249V659H24V716H538V659H313V418H499V366H313V0H249V366H63V418Z" />
<glyph unicode="&#x167;" glyph-name="tbar" horiz-adv-x="357" d="M321 8Q307 0 284 -5T235 -10Q200 -10 175 0T134 26T111 65T103 114V289H35V340H103V468H35V519H103V628H163V519H313V468H163V340H313V289H163V121Q163 85 181 64T241 43Q261 43 278 47T310 59L321 8Z" />
<glyph unicode="&#x168;" glyph-name="Utilde" horiz-adv-x="693" d="M76 716H140V247Q140 196 154 159T196 96T260 59T344 47Q389 47 428 59T495 96T540 159T557 248V716H617V250Q617 187 596 139T538 57T451 7T343 -10Q286 -10 237 6T152 54T96 134T76 246V716ZM191
790Q189 813 193 834T208 872T236 898T278 908Q301 908 320 898T357 877T389 855T420 845Q440 845 450 860T462 911H507Q509 888 505 867T490 829T462 804T420 794Q397 794 378 803T341 825T309 846T278 856Q258 856 248 841T237 790H191V790Z" />
<glyph unicode="&#x169;" glyph-name="utilde" horiz-adv-x="570" d="M429 107Q419 83 403 62T364 25T311 0T242 -10Q165 -10 121 33T76 161V519H135V161Q135 96 169 70T256 43Q291 43 318 52T366 78T402 117T430 167V519H489V0H436L431 107H429V107ZM130 602Q128
624 132 644T146 680T174 705T214 715Q236 715 255 706T290 686T322 665T351 656Q389 656 391 718H436Q437 697 433 677T419 640T392 615T352 605Q330 605 311 614T276 634T244 654T215 663Q175 663 175 602H130V602Z" />
<glyph unicode="&#x16a;" glyph-name="Umacron" horiz-adv-x="693" d="M76 716H140V247Q140 196 154 159T196 96T260 59T344 47Q389 47 428 59T495 96T540 159T557 248V716H617V250Q617 187 596 139T538 57T451 7T343 -10Q286 -10 237 6T152 54T96 134T76 246V716ZM208
867H486V818H208V867Z" />
<glyph unicode="&#x16b;" glyph-name="umacron" horiz-adv-x="570" d="M429 107Q419 83 403 62T364 25T311 0T242 -10Q165 -10 121 33T76 161V519H135V161Q135 96 169 70T256 43Q291 43 318 52T366 78T402 117T430 167V519H489V0H436L431 107H429V107ZM154 677H416V627H154V677Z"
/>
<glyph unicode="&#x16c;" glyph-name="Ubreve" horiz-adv-x="693" d="M76 716H140V247Q140 196 154 159T196 96T260 59T344 47Q389 47 428 59T495 96T540 159T557 248V716H617V250Q617 187 596 139T538 57T451 7T343 -10Q286 -10 237 6T152 54T96 134T76 246V716ZM348
773Q312 773 286 784T241 815T214 859T204 912H258Q260 869 283 846T348 823Q387 823 410 846T437 912H491Q489 884 480 859T454 815T410 785T348 773Z" />
<glyph unicode="&#x16d;" glyph-name="ubreve" horiz-adv-x="570" d="M429 107Q419 83 403 62T364 25T311 0T242 -10Q165 -10 121 33T76 161V519H135V161Q135 96 169 70T256 43Q291 43 318 52T366 78T402 117T430 167V519H489V0H436L431 107H429V107ZM285 594Q216
594 182 632T145 730H199Q201 687 222 665T285 642Q328 642 348 664T370 730H424Q422 670 388 632T285 594Z" />
<glyph unicode="&#x16e;" glyph-name="Uring" horiz-adv-x="693" d="M76 716H140V247Q140 196 154 159T196 96T260 59T344 47Q389 47 428 59T495 96T540 159T557 248V716H617V250Q617 187 596 139T538 57T451 7T343 -10Q286 -10 237 6T152 54T96 134T76 246V716ZM347
1004Q302 1004 272 1033T242 1108Q242 1130 250 1149T272 1181T305 1203T347 1211Q392 1211 422 1182T452 1108Q452 1062 422 1033T347 1004ZM347 1044Q374 1044 392 1061T410 1108Q410 1137 392 1154T347 1171Q320 1171 303 1154T285 1108Q285 1079 302 1062T347
1044Z" />
<glyph unicode="&#x16f;" glyph-name="uring" horiz-adv-x="570" d="M429 107Q419 83 403 62T364 25T311 0T242 -10Q165 -10 121 33T76 161V519H135V161Q135 96 169 70T256 43Q291 43 318 52T366 78T402 117T430 167V519H489V0H436L431 107H429V107ZM284 584Q239
584 209 613T179 688Q179 733 209 762T284 791Q306 791 325 784T358 762T381 729T389 688Q389 642 359 613T284 584ZM284 625Q311 625 329 642T347 688Q347 717 329 734T284 751Q257 751 240 734T222 688Q222 659 239 642T284 625Z" />
<glyph unicode="&#x170;" glyph-name="Uhungarumlaut" horiz-adv-x="693" d="M76 716H140V247Q140 196 154 159T196 96T260 59T344 47Q389 47 428 59T495 96T540 159T557 248V716H617V250Q617 187 596 139T538 57T451 7T343 -10Q286 -10 237 6T152 54T96 134T76
246V716ZM402 778L466 909H542L456 778H402ZM233 778L298 909H373L287 778H233Z" />
<glyph unicode="&#x171;" glyph-name="uhungarumlaut" horiz-adv-x="570" d="M429 107Q419 83 403 62T364 25T311 0T242 -10Q165 -10 121 33T76 161V519H135V161Q135 96 169 70T256 43Q291 43 318 52T366 78T402 117T430 167V519H489V0H436L431 107H429V107ZM336
593L396 746H465L385 593H336ZM185 593L244 746H313L234 593H185Z" />
<glyph unicode="&#x172;" glyph-name="Uogonek" horiz-adv-x="704" d="M360 -94Q360 -114 372 -126T409 -138Q433 -138 453 -129L463 -172Q453 -177 438 -181T403 -185Q355 -185 329 -163T302 -104Q302 -72 319 -49T361 -10H343Q286 -10 237 6T152 54T96 134T76
246V716H140V247Q140 196 154 159T196 96T260 59T344 47Q389 47 428 59T495 96T540 159T557 248V716H617V250Q617 154 572 94T453 6Q406 -19 383 -42T360 -94Z" />
<glyph unicode="&#x173;" glyph-name="uogonek" horiz-adv-x="570" d="M413 -94Q413 -114 425 -126T462 -138Q485 -138 506 -129L516 -172Q506 -177 491 -181T456 -185Q408 -185 382 -163T355 -104Q355 -66 379 -40T436 0L431 107H429Q419 83 403 62T364 25T311
0T242 -10Q165 -10 121 33T76 161V519H135V161Q135 96 169 70T256 43Q291 43 318 52T366 78T402 117T430 167V519H489V0Q454 -19 434 -43T413 -94Z" />
<glyph unicode="&#x174;" glyph-name="Wcircumflex" horiz-adv-x="925" d="M26 716H91L250 64L430 716H502L681 67L840 716H899L724 0H635L463 635L292 0H203L26 716ZM467 865L371 771H319L432 909H502L616 771H563L467 865Z" />
<glyph unicode="&#x175;" glyph-name="wcircumflex" horiz-adv-x="736" d="M32 519H94L205 47L336 519H406L535 47L646 519H704L580 0H489L367 439L245 0H157L32 519ZM375 691L282 593H229L339 736H409L520 593H467L375 691Z" />
<glyph unicode="&#x176;" glyph-name="Ycircumflex" horiz-adv-x="599" d="M268 0V311L17 716H88L303 366L518 716H582L332 312V0H268ZM302 865L206 771H154L267 909H337L451 771H398L302 865Z" />
<glyph unicode="&#x177;" glyph-name="ycircumflex" horiz-adv-x="504" d="M102 -187Q73 -187 56 -180L63 -129Q69 -131 78 -132T101 -134Q142 -134 168 -106T220 -17L19 519H83L252 59L426 519H484L291 7Q273 -40 255 -76T214 -137T165 -174T102 -187ZM261 691L168
593H115L225 736H295L406 593H353L261 691Z" />
<glyph unicode="&#x178;" glyph-name="Ydieresis" horiz-adv-x="599" d="M268 0V311L17 716H88L303 366L518 716H582L332 312V0H268ZM409 800Q389 800 378 812T367 842Q367 859 378 872T409 885Q429 885 440 872T451 842Q451 825 440 813T409 800ZM195 800Q175
800 164 812T153 842Q153 859 164 872T195 885Q215 885 226 872T237 842Q237 825 226 813T195 800Z" />
<glyph unicode="&#x179;" glyph-name="Zacute" horiz-adv-x="599" d="M50 0V47L466 659H60V716H543V669L124 57H544V0H50ZM356 908H438L328 778H271L356 908Z" />
<glyph unicode="&#x17a;" glyph-name="zacute" horiz-adv-x="456" d="M37 0V39L339 468H45V519H414V481L112 51H415V0H37ZM293 746H372L258 593H205L293 746Z" />
<glyph unicode="&#x17b;" glyph-name="Zdotaccent" horiz-adv-x="599" d="M50 0V47L466 659H60V716H543V669L124 57H544V0H50ZM306 800Q286 800 275 812T263 842Q263 859 274 872T306 885Q326 885 337 872T349 842Q349 825 338 813T306 800Z" />
<glyph unicode="&#x17c;" glyph-name="zdotaccent" horiz-adv-x="456" d="M37 0V39L339 468H45V519H414V481L112 51H415V0H37ZM234 619Q214 619 203 631T191 661Q191 678 202 691T234 704Q254 704 265 691T277 661Q277 644 266 632T234 619Z" />
<glyph unicode="&#x17d;" glyph-name="Zcaron" horiz-adv-x="599" d="M50 0V47L466 659H60V716H543V669L124 57H544V0H50ZM274 771L161 909H213L309 815L405 909H458L344 771H274Z" />
<glyph unicode="&#x17e;" glyph-name="zcaron" horiz-adv-x="456" d="M37 0V39L339 468H45V519H414V481L112 51H415V0H37ZM88 736H141L234 638L326 736H379L268 593H198L88 736Z" />
<glyph unicode="&#x192;" glyph-name="uni0192" horiz-adv-x="556" d="M56 -187Q30 -187 12 -183T-21 -174L-9 -125Q0 -129 18 -133T56 -138Q86 -138 107 -128T142 -99T166 -53T182 11L247 373H152L163 422H256L275 531Q292 625 334 675T458 726Q483 726 499 723T527
715L518 664Q510 668 494 671T457 675Q427 675 407 666T372 639T348 594T333 531L313 422H456L446 373H305L239 8Q223 -84 181 -135T56 -187Z" />
<glyph unicode="&#x218;" glyph-name="uni0218" horiz-adv-x="577" d="M272 -10Q231 -10 196 -4T132 11T80 31T44 54L58 114Q73 103 95 91T144 69T204 53T272 47Q311 47 345 55T406 80T447 123T462 186Q462 222 449 246T412 287T354 315T276 338Q236 348 196 362T125
398T74 455T54 539Q54 632 119 679T299 726Q336 726 365 722T416 712T456 699T487 685L476 625Q446 643 402 656T299 669Q211 669 164 638T117 541Q117 508 131 485T168 446T223 419T288 399Q327 388 369 376T446 341T504 282T527 189Q527 134 506 96T448 35T366
1T272 -10ZM225 -213Q240 -196 251 -179T271 -140Q254 -138 246 -127T237 -101Q237 -84 248 -72T278 -60Q297 -60 310 -72T323 -110Q323 -143 306 -168T271 -213H225Z" />
<glyph unicode="&#x219;" glyph-name="uni0219" horiz-adv-x="476" d="M234 -10Q160 -10 114 6T44 39L58 92Q82 74 127 57T235 40Q262 40 287 45T330 63T360 94T372 140Q372 167 362 184T333 212T288 229T229 243Q193 250 161 260T105 286T67 326T53 387Q53 457
105 493T244 529Q302 529 341 519T406 494L391 443Q365 457 331 468T244 479Q186 479 149 459T111 388Q111 366 120 352T146 327T188 310T242 297Q278 289 312 280T373 255T415 211T431 141Q431 99 415 71T371 24T309 -2T234 -10ZM429 -213Q444 -196 455 -179T475
-140Q458 -138 450 -127T441 -101Q441 -84 452 -72T482 -60Q501 -60 514 -72T527 -110Q527 -143 510 -168T475 -213H429Z" />
<glyph unicode="&#x21a;" glyph-name="uni021A" horiz-adv-x="567" d="M313 659V0H249V659H24V716H538V659H313ZM231 -213Q246 -196 257 -179T277 -140Q260 -138 252 -127T243 -101Q243 -84 254 -72T284 -60Q303 -60 316 -72T329 -110Q329 -143 312 -168T277 -213H231Z" />
<glyph unicode="&#x21b;" glyph-name="uni021B" horiz-adv-x="357" d="M320 8Q306 0 283 -5T234 -10Q199 -10 174 0T133 26T110 65T102 114V468H34V519H102V628H162V519H312V468H162V121Q162 85 180 64T240 43Q260 43 277 47T309 59L320 8V8ZM400 -213Q415 -196
426 -179T446 -140Q429 -138 421 -127T412 -101Q412 -84 423 -72T453 -60Q472 -60 485 -72T498 -110Q498 -143 481 -168T446 -213H400Z" />
<glyph unicode="&#x237;" glyph-name="uni0237" horiz-adv-x="227" d="M-8 -134Q46 -130 68 -104T90 -32V519H148V-29Q148 -95 114 -138T2 -187L-8 -134Z" />
<glyph unicode="&#x2bc;" glyph-name="uni02BC" horiz-adv-x="236" d="M68 542Q82 559 94 581T112 634Q95 636 85 648T74 678Q74 697 86 710T120 723Q141 723 154 709T168 668Q168 651 163 633T150 598T133 567T115 542H68Z" />
<glyph unicode="&#x2c6;" glyph-name="circumflex" horiz-adv-x="456" d="M229 691L136 593H83L193 736H263L374 593H321L229 691Z" />
<glyph unicode="&#x2c7;" glyph-name="caron" horiz-adv-x="456" d="M83 736H136L229 638L321 736H374L263 593H193L83 736Z" />
<glyph unicode="&#x2d8;" glyph-name="breve" horiz-adv-x="455" d="M228 594Q159 594 125 632T88 730H142Q144 687 165 665T228 642Q271 642 291 664T313 730H367Q365 670 331 632T228 594Z" />
<glyph unicode="&#x2d9;" glyph-name="dotaccent" horiz-adv-x="456" d="M228 619Q208 619 197 631T185 661Q185 678 196 691T228 704Q248 704 259 691T271 661Q271 644 260 632T228 619Z" />
<glyph unicode="&#x2da;" glyph-name="ring" horiz-adv-x="456" d="M228 584Q183 584 153 613T123 688Q123 733 153 762T228 791Q250 791 269 784T302 762T325 729T333 688Q333 642 303 613T228 584ZM228 625Q255 625 273 642T291 688Q291 717 273 734T228 751Q201
751 184 734T166 688Q166 659 183 642T228 625Z" />
<glyph unicode="&#x2db;" glyph-name="ogonek" horiz-adv-x="455" d="M247 -185Q199 -185 173 -163T146 -104Q146 -66 170 -40T223 0H282Q247 -20 226 -44T204 -94Q204 -114 216 -126T253 -138Q277 -138 297 -129L307 -172Q297 -177 282 -181T247 -185Z" />
<glyph unicode="&#x2dc;" glyph-name="tilde" horiz-adv-x="456" d="M75 602Q73 624 77 644T91 680T119 705T159 715Q181 715 200 706T235 686T267 665T296 656Q334 656 336 718H381Q382 697 378 677T364 640T337 615T297 605Q275 605 256 614T221 634T189 654T160
663Q120 663 120 602H75V602Z" />
<glyph unicode="&#x2dd;" glyph-name="hungarumlaut" horiz-adv-x="456" d="M254 593L314 746H383L303 593H254ZM103 593L162 746H231L152 593H103Z" />
<glyph unicode="&#x301;" glyph-name="acutecomb" horiz-adv-x="1" d="M-209 746H-130L-244 593H-297L-209 746Z" />
<glyph unicode="&#x401;" glyph-name="uni0401" horiz-adv-x="573" d="M92 716H505V659H156V401H458V344H156V57H510V0H92V716ZM412 800Q392 800 381 812T370 842Q370 859 381 872T412 885Q432 885 443 872T454 842Q454 825 443 813T412 800ZM198 800Q178 800
167 812T156 842Q156 859 167 872T198 885Q218 885 229 872T240 842Q240 825 229 813T198 800Z" />
<glyph unicode="&#x402;" glyph-name="uni0402" horiz-adv-x="783" d="M313 659V401Q338 421 379 433T472 445Q532 445 580 427T663 375T715 289T734 172Q734 34 665 -39T475 -112L468 -55Q573 -55 622 5T671 171Q671 274 622 331T470 388Q375 388 313 344V0H249V659H24V716H538V659H313Z"
/>
<glyph unicode="&#x403;" glyph-name="uni0403" horiz-adv-x="520" d="M324 908H406L296 778H239L324 908ZM156 659V0H92V716H476V659H156Z" />
<glyph unicode="&#x404;" glyph-name="uni0404" horiz-adv-x="661" d="M606 57Q576 31 523 11T393 -10Q316 -10 253 15T145 88T76 204T51 358Q51 445 74 513T142 628T249 701T391 726Q467 726 520 708T606 664L593 602Q556 633 504 651T391 669Q268 669 198 598T119
392H479V336H118Q124 196 197 122T397 47Q457 47 503 64T587 114L606 57V57Z" />
<glyph unicode="&#x405;" glyph-name="uni0405" horiz-adv-x="577" d="M272 -10Q231 -10 196 -4T132 11T80 31T44 54L58 114Q73 103 95 91T144 69T204 53T272 47Q311 47 345 55T406 80T447 123T462 186Q462 222 449 246T412 287T354 315T276 338Q236 348 196 362T125
398T74 455T54 539Q54 632 119 679T299 726Q336 726 365 722T416 712T456 699T487 685L476 625Q446 643 402 656T299 669Q211 669 164 638T117 541Q117 508 131 485T168 446T223 419T288 399Q327 388 369 376T446 341T504 282T527 189Q527 134 506 96T448 35T366
1T272 -10Z" />
<glyph unicode="&#x406;" glyph-name="uni0406" horiz-adv-x="247" d="M156 716V0H92V716H156Z" />
<glyph unicode="&#x407;" glyph-name="uni0407" horiz-adv-x="247" d="M213 800Q193 800 182 812T170 842Q170 859 181 872T213 885Q233 885 244 872T255 842Q255 825 244 813T213 800ZM34 800Q14 800 3 812T-9 842Q-9 859 2 872T34 885Q54 885 65 872T76 842Q76
825 65 813T34 800ZM156 716V0H92V716H156Z" />
<glyph unicode="&#x408;" glyph-name="uni0408" horiz-adv-x="368" d="M280 716V136Q280 106 272 79T245 33T199 2T130 -10Q75 -10 35 9L47 67Q54 62 75 55T124 47Q176 47 196 73T217 150V716H280Z" />
<glyph unicode="&#x409;" glyph-name="uni0409" horiz-adv-x="1010" d="M198 196Q190 149 177 112T144 48T96 8T29 -4L21 60Q73 55 99 94T138 208Q152 286 158 416T168 716H573V425H726Q840 425 901 376T963 220Q963 161 946 120T896 52T817 13T714 0H510V659H227Q223
509 217 391T198 196ZM573 368V57H714Q757 57 791 65T849 93T884 143T897 218Q897 368 724 368H573Z" />
<glyph unicode="&#x40a;" glyph-name="uni040A" horiz-adv-x="1080" d="M638 348V57H786Q872 57 919 91T967 207Q967 348 796 348H638ZM575 348H156V0H92V716H156V405H575V716H638V405H798Q911 405 971 359T1032 210Q1032 154 1015 114T965 49T888 12T786 0H575V348Z" />
<glyph unicode="&#x40b;" glyph-name="uni040B" horiz-adv-x="784" d="M313 659V397Q340 415 383 430T486 445Q594 445 654 391T715 220V0H651V218Q651 265 639 297T606 350T553 379T484 388Q433 388 391 376T313 339V0H249V659H24V716H538V659H313Z" />
<glyph unicode="&#x40c;" glyph-name="uni040C" horiz-adv-x="619" d="M237 331H156V0H92V716H156V388H236L510 716H582L289 364L595 0H517L237 331ZM354 908H436L326 778H269L354 908Z" />
<glyph unicode="&#x40e;" glyph-name="uni040E" horiz-adv-x="605" d="M316 759Q277 759 249 770T202 799T174 843T164 896H224Q224 850 248 828T316 805Q359 805 382 827T406 896H466Q466 868 457 843T429 800T382 770T316 759ZM155 -3Q146 -3 139 -2T127 0L120
63Q127 61 136 61T154 60Q202 60 232 91T290 184L30 716H102L323 257L514 716H579L356 193Q335 144 315 107T271 46T219 9T155 -3Z" />
<glyph unicode="&#x40f;" glyph-name="uni040F" horiz-adv-x="722" d="M397 0L393 -170H337L334 0H92V716H156V57H567V716H630V0H397Z" />
<glyph unicode="&#x410;" glyph-name="uni0410" horiz-adv-x="641" d="M316 665L180 278H453L316 665ZM473 222H160L82 0H23L275 716H365L618 0H552L473 222Z" />
<glyph unicode="&#x411;" glyph-name="uni0411" horiz-adv-x="608" d="M156 358V57H301Q389 57 438 92T487 213Q487 358 311 358H156ZM92 716H503V659H156V415H313Q428 415 490 367T552 215Q552 158 535 117T484 50T405 12T301 0H92V716Z" />
<glyph unicode="&#x412;" glyph-name="uni0412" horiz-adv-x="613" d="M156 660V397H278Q359 397 408 430T458 540Q458 605 416 632T291 660H156ZM156 341V57H298Q342 57 377 64T438 89T478 133T492 201Q492 275 446 308T302 341H156ZM92 716H291Q403 716 462
676T522 543Q522 468 485 429T384 374Q471 363 514 322T557 203Q557 148 537 110T483 47T401 11T298 0H92V716Z" />
<glyph unicode="&#x413;" glyph-name="uni0413" horiz-adv-x="520" d="M156 659V0H92V716H476V659H156Z" />
<glyph unicode="&#x414;" glyph-name="uni0414" horiz-adv-x="736" d="M549 659H253Q248 531 242 432T225 260T197 137T152 57H549V659ZM635 0H88L79 -170H24V57H74Q110 82 131 134T165 268T183 461T195 716H613V57H700V-170H642L635 0Z" />
<glyph unicode="&#x415;" glyph-name="uni0415" horiz-adv-x="573" d="M92 716H505V659H156V401H458V344H156V57H510V0H92V716Z" />
<glyph unicode="&#x416;" glyph-name="uni0416" horiz-adv-x="932" d="M434 332H358L98 0H23L309 364L37 717L107 716L360 386H434V716H497V386H572L825 716H895L623 364L910 0H833L572 332H497V0H434V332Z" />
<glyph unicode="&#x417;" glyph-name="uni0417" horiz-adv-x="573" d="M269 -10Q186 -10 132 13T49 60L67 118Q105 87 154 67T271 47Q310 47 343 56T400 84T438 132T452 201Q452 273 409 307T277 341H179V396H264Q339 396 382 430T425 537Q425 603 385 636T273
670Q215 670 169 652T88 610L68 665Q99 686 150 706T273 726Q371 726 430 680T489 540Q489 472 454 431T355 373Q435 362 476 319T517 202Q517 145 496 105T441 40T362 2T269 -10Z" />
<glyph unicode="&#x418;" glyph-name="uni0418" horiz-adv-x="746" d="M92 0V716H156V86L587 716H654V0H590V630L159 0H92Z" />
<glyph unicode="&#x419;" glyph-name="uni0419" horiz-adv-x="746" d="M370 759Q293 759 256 798T218 896H278Q278 848 302 827T370 805Q413 805 437 826T461 896H520Q520 867 511 842T483 799T436 770T370 759ZM92 0V716H156V86L587 716H654V0H590V630L159 0H92Z" />
<glyph unicode="&#x41a;" glyph-name="uni041A" horiz-adv-x="619" d="M237 331H156V0H92V716H156V388H236L510 716H582L289 364L595 0H517L237 331Z" />
<glyph unicode="&#x41b;" glyph-name="uni041B" horiz-adv-x="674" d="M198 196Q190 149 177 112T144 48T96 8T29 -4L21 57Q74 55 100 94T138 208Q152 286 158 416T168 716H573V0H510V659H227Q223 509 217 391T198 196Z" />
<glyph unicode="&#x41c;" glyph-name="uni041C" horiz-adv-x="870" d="M151 632V0H92V716H179L435 171L696 716H778V0H715V627L464 109H400L151 632Z" />
<glyph unicode="&#x41d;" glyph-name="uni041D" horiz-adv-x="730" d="M575 327H156V0H92V716H156V384H575V716H638V0H575V327Z" />
<glyph unicode="&#x41e;" glyph-name="uni041E" horiz-adv-x="776" d="M388 -10Q316 -10 255 15T148 87T77 203T51 359Q51 448 76 516T147 631T254 702T388 726Q461 726 522 702T629 632T699 517T725 359Q725 272 700 204T629 88T523 15T388 -10ZM388 47Q447 47
496 66T582 123T638 220T659 358Q659 437 639 495T582 592T497 650T388 669Q329 669 280 650T194 593T138 496T118 358Q118 279 138 221T194 124T279 66T388 47Z" />
<glyph unicode="&#x41f;" glyph-name="uni041F" horiz-adv-x="713" d="M558 659H156V0H92V716H621V0H558V659Z" />
<glyph unicode="&#x420;" glyph-name="uni0420" horiz-adv-x="583" d="M156 659V355H288Q376 355 424 392T473 516Q473 590 429 624T297 659H156ZM156 298V0H92V716H297Q410 716 473 668T536 517Q536 459 519 418T469 350T391 311T288 298H156Z" />
<glyph unicode="&#x421;" glyph-name="uni0421" horiz-adv-x="662" d="M394 -10Q317 -10 254 15T145 88T76 204T51 358Q51 445 74 513T142 628T250 701T392 726Q468 726 521 708T607 664L594 602Q557 632 506 650T392 669Q261 669 190 589T118 358Q118 207 192
127T398 47Q458 47 504 64T589 111L607 57Q577 31 524 11T394 -10Z" />
<glyph unicode="&#x422;" glyph-name="uni0422" horiz-adv-x="562" d="M313 659V0H249V659H24V716H538V659H313Z" />
<glyph unicode="&#x423;" glyph-name="uni0423" horiz-adv-x="605" d="M155 -3Q146 -3 139 -2T127 0L120 63Q127 61 136 61T154 60Q202 60 232 91T290 184L30 716H102L323 257L514 716H579L356 193Q335 144 315 107T271 46T219 9T155 -3Z" />
<glyph unicode="&#x424;" glyph-name="uni0424" horiz-adv-x="802" d="M370 79Q302 80 243 98T141 150T73 236T48 356Q48 425 72 476T140 563T243 617T370 639V725H433V639Q502 637 560 620T662 568T730 482T755 362Q755 294 731 242T663 155T561 100T433 79V-10H370V79ZM370
587Q316 584 269 571T188 530T133 461T113 357Q113 298 133 256T187 187T269 147T370 131V587ZM689 360Q689 420 670 462T616 531T534 571T433 586V130Q487 133 534 146T615 187T669 257T689 360Z" />
<glyph unicode="&#x425;" glyph-name="uni0425" horiz-adv-x="634" d="M312 323L94 0H27L279 370L44 716H118L324 414L526 716H593L355 368L607 0H532L312 323Z" />
<glyph unicode="&#x426;" glyph-name="uni0426" horiz-adv-x="746" d="M651 -170L644 0H92V716H156V57H558V716H621V57H709V-170H651Z" />
<glyph unicode="&#x427;" glyph-name="uni0427" horiz-adv-x="658" d="M503 0V354Q464 315 414 294T300 273Q249 273 207 287T135 331T87 409T70 524V716H133V526Q133 474 145 437T179 375T231 339T299 327Q362 327 413 348T503 420V716H566V0H503Z" />
<glyph unicode="&#x428;" glyph-name="uni0428" horiz-adv-x="938" d="M92 716H156V57H436V716H501V57H783V716H847V0H92V716Z" />
<glyph unicode="&#x429;" glyph-name="uni0429" horiz-adv-x="971" d="M875 -170L867 0H92V716H156V57H436V716H501V57H783V716H847V57H932V-170H875Z" />
<glyph unicode="&#x42a;" glyph-name="uni042A" horiz-adv-x="715" d="M273 363V57H421Q506 57 554 93T602 215Q602 363 431 363H273ZM209 659H24V716H273V420H433Q545 420 606 372T667 218Q667 159 650 118T600 51T523 12T421 0H209V659Z" />
<glyph unicode="&#x42b;" glyph-name="uni042B" horiz-adv-x="817" d="M725 716V0H662V716H725ZM156 363V57H298Q384 57 431 93T479 215Q479 363 309 363H156ZM92 716H156V420H310Q422 420 483 372T545 218Q545 159 528 118T478 51T400 12T298 0H92V716Z" />
<glyph unicode="&#x42c;" glyph-name="uni042C" horiz-adv-x="592" d="M156 368V57H296Q339 57 373 65T431 93T466 143T479 218Q479 368 306 368H156ZM92 716H156V425H308Q422 425 483 376T545 220Q545 161 528 120T478 52T399 13T296 0H92V716Z" />
<glyph unicode="&#x42d;" glyph-name="uni042D" horiz-adv-x="661" d="M270 -10Q193 -10 139 9T53 52L66 113Q102 84 154 66T270 47Q398 47 466 119T542 327H197V384H542Q536 523 465 596T265 669Q205 669 158 651T72 601L53 660Q83 686 137 706T269 726Q348 726
411 701T518 629T586 513T610 358Q610 272 588 204T522 88T415 15T270 -10Z" />
<glyph unicode="&#x42e;" glyph-name="uni042E" horiz-adv-x="969" d="M601 -10Q536 -10 480 12T382 77T315 183T285 327H156V0H92V716H156V384H285Q288 466 313 530T381 637T479 703T601 726Q668 726 726 702T827 632T894 517T918 361Q918 273 894 204T827 88T726
15T601 -10ZM601 47Q655 47 701 66T780 123T832 220T851 358Q851 437 833 495T781 592T701 650T601 669Q547 669 501 650T422 593T370 496T351 358Q351 279 369 221T421 124T501 66T601 47Z" />
<glyph unicode="&#x42f;" glyph-name="uni042F" horiz-adv-x="625" d="M108 0H31L260 311Q176 325 131 372T86 511Q86 565 103 603T153 667T230 704T332 716H534V0H470V302H327L108 0ZM470 359V659H332Q246 659 199 624T152 510Q152 430 197 395T333 359H470Z" />
<glyph unicode="&#x430;" glyph-name="uni0430" horiz-adv-x="525" d="M220 43Q254 43 281 53T330 80T366 116T390 152V260H291Q191 260 148 231T104 147Q104 97 135 70T220 43ZM399 0Q396 15 394 40T392 94Q381 76 366 58T328 24T276 0T210 -10Q134 -10 90 31T45
145Q45 227 106 268T286 309H390V354Q390 423 353 450T251 477Q197 477 155 463T87 432L71 481Q97 499 144 514T254 529Q342 529 395 489T449 361V94Q449 68 450 42T454 0H399Z" />
<glyph unicode="&#x431;" glyph-name="uni0431" horiz-adv-x="595" d="M305 -10Q251 -10 206 8T127 62T76 155T57 286Q57 343 59 402T73 514T112 612T191 686Q213 698 236 705T286 717T343 723T408 726Q444 728 466 733T504 748L513 692Q497 681 473 677T413 670Q343
668 297 663T213 638Q184 621 165 597T133 540T114 469T104 385Q130 453 184 488T315 523Q365 523 408 505T482 454T532 371T550 258Q550 195 532 145T480 61T402 8T305 -10ZM304 43Q344 43 378 56T437 97T476 164T490 258Q490 311 476 351T438 418T379 458T305
472Q264 472 230 459T170 419T130 352T116 259Q116 205 130 165T169 97T228 57T304 43Z" />
<glyph unicode="&#x432;" glyph-name="uni0432" horiz-adv-x="517" d="M140 468V294H263Q317 294 350 316T383 384Q383 432 352 450T264 468H140ZM140 246V51H268Q299 51 324 56T368 72T397 102T407 149Q407 203 372 224T267 246H140ZM81 519H261Q350 519 396
488T442 390Q442 344 419 315T353 273Q409 265 438 233T468 150Q468 109 454 81T412 34T348 8T264 0H81V519Z" />
<glyph unicode="&#x433;" glyph-name="uni0433" horiz-adv-x="433" d="M140 468V0H81V519H390V468H140Z" />
<glyph unicode="&#x434;" glyph-name="uni0434" horiz-adv-x="577" d="M418 468H193Q190 384 186 317T175 198T155 110T122 51H418V468ZM495 0H72L65 -148H13V51H49Q78 65 94 101T120 196T132 336T139 519H477V51H554V-148H503L495 0Z" />
<glyph unicode="&#x435;" glyph-name="uni0435" horiz-adv-x="540" d="M284 477Q215 477 166 433T105 300H438Q441 345 430 378T398 434T348 466T284 477ZM484 45Q459 27 416 9T303 -10Q178 -10 111 61T43 260Q43 323 61 373T113 457T190 510T285 529Q337 529
379 512T450 459T490 371T492 249H103Q106 148 159 96T306 43Q363 43 402 60T468 97L484 45Z" />
<glyph unicode="&#x436;" glyph-name="uni0436" horiz-adv-x="743" d="M342 235H281L101 0H31L232 261L27 519H97L278 286H342V519H402V286H466L649 519H716L512 264L714 0H642L463 235H402V0H342V235Z" />
<glyph unicode="&#x437;" glyph-name="uni0437" horiz-adv-x="462" d="M205 -10Q154 -10 112 1T42 30L60 81Q88 65 125 54T205 43Q236 43 263 48T311 66T342 99T354 148Q354 200 321 221T219 243H140V291H219Q273 291 304 315T335 387Q335 435 300 456T212 477Q169
477 135 466T72 438L59 488Q84 503 121 516T214 529Q300 529 345 494T391 391Q391 340 365 310T295 270Q353 262 383 231T413 150Q413 106 397 76T353 26T286 -1T205 -10Z" />
<glyph unicode="&#x438;" glyph-name="uni0438" horiz-adv-x="595" d="M81 519H140V85L457 519H514V0H455V435L139 0H81V519Z" />
<glyph unicode="&#x439;" glyph-name="uni0439" horiz-adv-x="595" d="M299 586Q263 586 237 596T192 623T166 663T157 712H217Q217 670 239 651T299 631Q337 631 358 650T379 712H439Q439 686 431 663T405 623T361 596T299 586ZM81 519H140V85L457 519H514V0H455V435L139
0H81V519Z" />
<glyph unicode="&#x43a;" glyph-name="uni043A" horiz-adv-x="497" d="M204 235H141V0H81V519H141V286H207L403 519H471L253 263L468 0H396L204 235Z" />
<glyph unicode="&#x43b;" glyph-name="uni043B" horiz-adv-x="539" d="M163 105Q146 49 115 23T30 -1L20 54Q85 50 107 120Q126 177 130 275T135 519H458V0H399V468H191Q190 346 186 256T163 105Z" />
<glyph unicode="&#x43c;" glyph-name="uni043C" horiz-adv-x="705" d="M136 461V0H81V519H172L352 142L537 519H625V0H566V460L372 66H326L136 461Z" />
<glyph unicode="&#x43d;" glyph-name="uni043D" horiz-adv-x="576" d="M436 244H140V0H81V519H140V295H436V519H496V0H436V244Z" />
<glyph unicode="&#x43e;" glyph-name="uni043E" horiz-adv-x="579" d="M289 -10Q236 -10 191 8T113 60T62 145T43 260Q43 324 61 374T113 458T191 511T289 529Q342 529 387 511T466 459T518 374T537 260Q537 196 518 146T466 61T388 8T289 -10ZM289 43Q329 43
363 57T423 98T462 165T477 260Q477 314 463 354T423 422T364 463T289 477Q249 477 215 464T156 423T117 355T103 260Q103 206 117 166T156 98T215 57T289 43Z" />
<glyph unicode="&#x43f;" glyph-name="uni043F" horiz-adv-x="566" d="M426 468H140V0H81V519H485V0H426V468Z" />
<glyph unicode="&#x440;" glyph-name="uni0440" horiz-adv-x="614" d="M326 43Q366 43 399 57T457 98T496 166T510 260Q510 313 496 353T458 421T400 463T326 477Q286 477 252 463T192 422T153 354T139 260Q139 207 153 167T192 99T251 57T326 43ZM332 -10Q265
-10 216 22T140 114V-177H81V519H134L139 405V403Q165 463 214 496T334 529Q383 529 426 512T501 461T551 377T570 260Q570 194 551 144T500 59T425 8T332 -10Z" />
<glyph unicode="&#x441;" glyph-name="uni0441" horiz-adv-x="500" d="M301 -10Q245 -10 198 8T116 60T62 145T43 259Q43 322 62 372T115 457T198 510T303 529Q347 529 386 520T455 492L440 440Q414 455 379 466T303 477Q211 477 157 421T103 259Q103 208 117
168T158 100T220 58T301 43Q343 43 376 53T438 81L453 31Q427 12 390 1T301 -10Z" />
<glyph unicode="&#x442;" glyph-name="uni0442" horiz-adv-x="469" d="M264 468V0H204V468H32V519H437V468H264Z" />
<glyph unicode="&#x443;" glyph-name="uni0443" horiz-adv-x="504" d="M102 -187Q73 -187 56 -180L63 -129Q69 -131 78 -132T101 -134Q142 -134 168 -106T220 -17L19 519H83L252 59L426 519H484L291 7Q273 -40 255 -76T214 -137T165 -174T102 -187Z" />
<glyph unicode="&#x444;" glyph-name="uni0444" horiz-adv-x="699" d="M321 -177V-8Q264 -6 214 11T125 61T65 144T43 260Q43 326 65 375T125 458T213 508T321 527V727H379V527Q436 525 486 508T575 458T635 376T657 260Q657 194 635 145T574 62T486 11T379 -8V-177H321ZM103
260Q103 204 120 165T167 99T236 60T321 45V476Q276 474 236 461T167 422T120 356T103 260ZM596 260Q596 316 579 355T533 421T464 460T379 476V45Q424 47 463 60T532 98T579 164T596 260Z" />
<glyph unicode="&#x445;" glyph-name="uni0445" horiz-adv-x="487" d="M238 224L82 0H22L208 269L33 519H104L248 313L388 519H450L279 270L466 0H396L238 224Z" />
<glyph unicode="&#x446;" glyph-name="uni0446" horiz-adv-x="585" d="M512 -148L504 0H81V519H140V51H426V519H485V51H562V-148H512Z" />
<glyph unicode="&#x447;" glyph-name="uni0447" horiz-adv-x="530" d="M389 0V254Q364 227 325 210T235 193Q157 193 112 234T66 365V519H126V366Q126 298 157 271T240 243Q288 243 327 262T389 320V519H449V0H389Z" />
<glyph unicode="&#x448;" glyph-name="uni0448" horiz-adv-x="783" d="M81 519H140V51H362V519H421V51H643V519H702V0H81V519Z" />
<glyph unicode="&#x449;" glyph-name="uni0449" horiz-adv-x="802" d="M729 -148L721 0H81V519H140V51H362V519H421V51H643V519H702V51H779V-148H729Z" />
<glyph unicode="&#x44a;" glyph-name="uni044A" horiz-adv-x="569" d="M234 275V51H325Q389 51 429 77T470 164Q470 223 434 249T333 275H234ZM174 468H32V519H234V326H333Q425 326 477 289T529 167Q529 124 514 93T472 41T408 10T325 0H174V468Z" />
<glyph unicode="&#x44b;" glyph-name="uni044B" horiz-adv-x="666" d="M585 0H525V519H585V0ZM140 275V51H230Q294 51 334 77T374 164Q374 223 338 249T238 275H140ZM81 519H140V326H238Q330 326 382 289T434 167Q434 124 419 93T376 41T312 10T230 0H81V519Z" />
<glyph unicode="&#x44c;" glyph-name="uni044C" horiz-adv-x="475" d="M139 275V51H231Q295 51 335 77T375 164Q375 223 339 249T239 275H139ZM80 519H139V326H239Q331 326 383 289T435 167Q435 124 420 93T377 41T313 10T231 0H80V519Z" />
<glyph unicode="&#x44d;" glyph-name="uni044D" horiz-adv-x="496" d="M198 -10Q149 -10 113 0T48 30L62 83Q120 42 198 42Q287 42 339 93T396 242H154V292H394Q386 380 336 428T199 476Q159 476 124 467T60 440L46 490Q75 506 114 517T199 529Q257 529 304 511T386
458T438 373T456 259Q456 196 438 146T385 62T304 9T198 -10Z" />
<glyph unicode="&#x44e;" glyph-name="uni044E" horiz-adv-x="769" d="M489 -10Q440 -10 398 7T325 56T275 136T253 244H140V0H81V519H140V295H255Q260 351 279 394T330 468T401 513T489 529Q540 529 583 511T659 459T709 374T727 260Q727 196 709 146T659 61T584
8T489 -10ZM489 43Q527 43 559 57T615 98T652 165T666 260Q666 314 653 354T616 422T560 463T489 477Q451 477 419 464T364 423T327 355T313 260Q313 206 326 166T363 98T419 57T489 43Z" />
<glyph unicode="&#x44f;" glyph-name="uni044F" horiz-adv-x="508" d="M368 257V468H274Q211 468 171 443T130 362Q130 306 166 282T267 257H368ZM368 206H254L108 0H39L195 218Q136 230 103 264T70 359Q70 401 85 431T127 480T191 509T274 519H427V0H368V206Z" />
<glyph unicode="&#x451;" glyph-name="uni0451" horiz-adv-x="540" d="M284 477Q215 477 166 433T105 300H438Q441 345 430 378T398 434T348 466T284 477ZM484 45Q459 27 416 9T303 -10Q178 -10 111 61T43 260Q43 323 61 373T113 457T190 510T285 529Q337 529
379 512T450 459T490 371T492 249H103Q106 148 159 96T306 43Q363 43 402 60T468 97L484 45ZM381 619Q361 619 350 631T339 661Q339 678 350 691T381 704Q401 704 412 691T423 661Q423 644 412 632T381 619ZM180 619Q160 619 149 631T138 661Q138 678 149 691T180
704Q200 704 211 691T223 661Q223 644 212 632T180 619Z" />
<glyph unicode="&#x452;" glyph-name="uni0452" horiz-adv-x="586" d="M513 -29Q513 -95 479 -138T367 -187L357 -134Q410 -130 432 -104T454 -32L453 359Q453 423 419 450T327 477Q289 477 261 467T210 439T173 399T145 350V0H87V586H-1V632H87V716H145V632H318V586H145V513L144
410H146Q156 433 172 454T213 492T268 519T340 529Q421 529 467 488T513 364V-29V-29Z" />
<glyph unicode="&#x453;" glyph-name="uni0453" horiz-adv-x="433" d="M140 468V0H81V519H390V468H140ZM257 746H336L222 593H169L257 746Z" />
<glyph unicode="&#x454;" glyph-name="uni0454" horiz-adv-x="498" d="M452 30Q422 13 386 2T297 -10Q240 -10 193 8T113 61T62 146T43 260Q43 323 61 373T113 457T194 510T300 529Q343 529 381 518T448 490L434 437Q407 456 372 466T301 477Q213 477 163 430T104
292H350V241H104Q109 147 160 95T297 43Q338 43 373 54T438 83L452 30V30Z" />
<glyph unicode="&#x455;" glyph-name="uni0455" horiz-adv-x="476" d="M234 -10Q160 -10 114 6T44 39L58 92Q82 74 127 57T235 40Q262 40 287 45T330 63T360 94T372 140Q372 167 362 184T333 212T288 229T229 243Q193 250 161 260T105 286T67 326T53 387Q53 457
105 493T244 529Q302 529 341 519T406 494L391 443Q365 457 331 468T244 479Q186 479 149 459T111 388Q111 366 120 352T146 327T188 310T242 297Q278 289 312 280T373 255T415 211T431 141Q431 99 415 71T371 24T309 -2T234 -10Z" />
<glyph unicode="&#x456;" glyph-name="uni0456" horiz-adv-x="221" d="M111 619Q91 619 80 632T68 662Q68 679 79 692T111 705Q131 705 142 692T153 662Q153 645 142 632T111 619ZM140 519V0H81V519H140Z" />
<glyph unicode="&#x457;" glyph-name="uni0457" horiz-adv-x="221" d="M188 619Q168 619 157 631T146 661Q146 678 157 691T188 704Q208 704 219 691T230 661Q230 644 219 632T188 619ZM33 619Q13 619 2 631T-10 661Q-10 678 1 691T33 704Q53 704 65 691T77 661Q77
644 65 632T33 619ZM140 519V0H81V519H140Z" />
<glyph unicode="&#x458;" glyph-name="uni0458" horiz-adv-x="229" d="M119 619Q99 619 88 632T76 662Q76 679 87 692T119 705Q139 705 150 692T162 662Q162 645 151 632T119 619ZM-8 -134Q46 -130 68 -104T90 -32V519H148V-29Q148 -95 114 -138T2 -187L-8 -134Z" />
<glyph unicode="&#x459;" glyph-name="uni0459" horiz-adv-x="800" d="M163 105Q146 49 115 23T30 -1L20 54Q85 50 107 120Q126 177 130 275T135 519H458V326H563Q654 326 707 288T760 167Q760 124 745 93T702 41T638 10T555 0H399V468H191Q190 346 186 256T163
105ZM555 51Q619 51 659 77T700 164Q700 223 664 249T563 275H458V51H555Z" />
<glyph unicode="&#x45a;" glyph-name="uni045A" horiz-adv-x="832" d="M436 260H140V0H81V519H140V311H436V519H496V310H596Q688 310 740 274T792 160Q792 118 777 88T734 39T670 10T588 0H436V260ZM496 259V51H588Q651 51 691 75T732 156Q732 210 696 234T595 259H496Z" />
<glyph unicode="&#x45b;" glyph-name="uni045B" horiz-adv-x="589" d="M327 477Q289 477 261 467T210 439T173 399T145 350V0H86V586H-1V632H86V716H145V632H318V586H145V513L144 411H147Q157 434 173 455T213 492T268 519T340 529Q420 529 466 488T513 364V0H453V359Q453
423 419 450T327 477Z" />
<glyph unicode="&#x45c;" glyph-name="uni045C" horiz-adv-x="497" d="M204 235H141V0H81V519H141V286H207L403 519H471L253 263L468 0H396L204 235ZM297 746H376L262 593H209L297 746Z" />
<glyph unicode="&#x45e;" glyph-name="uni045E" horiz-adv-x="504" d="M258 585Q222 585 196 595T152 622T126 662T117 712H177Q177 670 198 651T258 631Q296 631 317 650T339 712H399Q399 685 390 662T364 622T320 595T258 585ZM102 -187Q73 -187 56 -180L63
-129Q69 -131 78 -132T101 -134Q142 -134 168 -106T220 -17L19 519H83L252 59L426 519H484L291 7Q273 -40 255 -76T214 -137T165 -174T102 -187Z" />
<glyph unicode="&#x45f;" glyph-name="uni045F" horiz-adv-x="574" d="M316 0L312 -148H263L259 0H81V519H140V51H434V519H493V0H316Z" />
<glyph unicode="&#x490;" glyph-name="uni0490" horiz-adv-x="520" d="M156 659V0H92V716H411L419 885H476V659H156Z" />
<glyph unicode="&#x491;" glyph-name="uni0491" horiz-adv-x="438" d="M140 468V0H81V519H337L345 667H395V468H140Z" />
<glyph unicode="&#x492;" glyph-name="uni0492" horiz-adv-x="559" d="M25 384H132V716H516V659H196V384H395V332H196V0H132V332H25V384Z" />
<glyph unicode="&#x493;" glyph-name="uni0493" horiz-adv-x="466" d="M19 286H109V519H418V468H168V286H329V240H168V0H109V240H19V286Z" />
<glyph unicode="&#x49a;" glyph-name="uni049A" horiz-adv-x="646" d="M237 331H156V0H92V716H156V388H236L510 716H582L289 364L547 57H628V-170H571L562 0H517L237 331Z" />
<glyph unicode="&#x49b;" glyph-name="uni049B" horiz-adv-x="511" d="M204 235H141V0H81V519H141V286H207L403 519H471L253 263L426 51H490V-148H440L432 0H396L204 235Z" />
<glyph unicode="&#x4a2;" glyph-name="uni04A2" horiz-adv-x="764" d="M575 327H156V0H92V716H156V384H575V716H638V57H725V-170H667L659 0H575V327Z" />
<glyph unicode="&#x4a3;" glyph-name="uni04A3" horiz-adv-x="595" d="M436 244H140V0H81V519H140V295H436V519H496V51H572V-148H522L514 0H436V244Z" />
<glyph unicode="&#x4ae;" glyph-name="uni04AE" horiz-adv-x="599" d="M268 0V311L17 716H88L303 366L518 716H582L332 312V0H268Z" />
<glyph unicode="&#x4af;" glyph-name="uni04AF" horiz-adv-x="514" d="M227 -177V-2L19 519H83L259 75L435 519H494L286 -1V-177H227Z" />
<glyph unicode="&#x4b0;" glyph-name="uni04B0" horiz-adv-x="599" d="M268 0V271H104V322H261L17 716H88L303 366L518 716H582L338 322H497V271H332V0H268Z" />
<glyph unicode="&#x4b1;" glyph-name="uni04B1" horiz-adv-x="514" d="M227 -177V-49H85V0H226L19 519H83L259 75L435 519H494L286 0H428V-49H286V-177H227Z" />
<glyph unicode="&#x4ba;" glyph-name="uni04BA" horiz-adv-x="658" d="M150 716V362Q189 401 239 422T353 443Q404 443 446 429T518 385T566 307T583 192V0H520V190Q520 242 508 279T474 341T422 377T354 389Q291 389 240 368T150 296V0H87V716H150Z" />
<glyph unicode="&#x4bb;" glyph-name="uni04BB" horiz-adv-x="584" d="M322 477Q284 477 256 467T205 439T168 399T140 350V0H81V716H140V513L139 411H142Q152 434 168 455T208 492T263 519T335 529Q415 529 461 488T508 364V0H448V359Q448 423 414 450T322 477Z" />
<glyph unicode="&#x4d8;" glyph-name="uni04D8" horiz-adv-x="720" d="M351 -10Q50 -10 50 348V384H601Q596 519 529 594T329 669Q262 669 206 653T108 602L90 660Q128 689 188 707T330 726Q412 726 475 701T582 627T647 511T669 358Q669 274 648 206T585 90T485
16T351 -10ZM351 47Q468 47 531 120T601 327H114Q118 180 176 114T351 47Z" />
<glyph unicode="&#x4d9;" glyph-name="uni04D9" horiz-adv-x="540" d="M256 42Q325 42 374 86T435 219H102Q99 174 110 141T142 85T192 53T256 42ZM56 474Q81 492 124 510T237 529Q362 529 429 458T497 259Q497 196 479 146T427 62T350 9T255 -10Q203 -10 161
7T90 60T50 148T48 270H437Q434 371 381 423T234 476Q177 476 138 459T72 422L56 474Z" />
<glyph unicode="&#x4e8;" glyph-name="uni04E8" horiz-adv-x="776" d="M388 -10Q316 -10 255 15T148 87T77 204T51 361Q51 449 76 517T147 631T254 702T388 726Q461 726 522 702T629 632T699 517T725 361Q725 273 700 204T629 88T523 15T388 -10ZM388 669Q332
669 284 652T200 599T143 511T117 387H660Q656 458 634 511T576 599T492 651T388 669ZM388 47Q444 47 492 64T577 117T635 205T660 331H117Q120 259 142 206T200 117T284 65T388 47Z" />
<glyph unicode="&#x4e9;" glyph-name="uni04E9" horiz-adv-x="579" d="M289 -10Q236 -10 191 8T113 60T62 145T43 260Q43 324 61 374T113 458T191 511T289 529Q342 529 387 511T466 459T518 374T537 260Q537 196 518 146T466 61T388 8T289 -10ZM289 477Q252 477
220 466T164 432T123 375T103 295H477Q472 340 456 374T415 431T358 465T289 477ZM289 43Q328 43 361 55T420 93T461 156T479 244H101Q106 144 158 94T289 43Z" />
</font>
</defs>
</svg>
